<?xml version="1.0" standalone="no"?>
<!DOCTYPE svg PUBLIC "-//W3C//DTD SVG 1.1//EN" "http://www.w3.org/Graphics/SVG/1.1/DTD/svg11.dtd" >
<svg xmlns="http://www.w3.org/2000/svg">
<metadata>Generated by IcoMoon</metadata>
<defs>
<font id="social_buttons" horiz-adv-x="512">
<font-face units-per-em="512" ascent="480" descent="-32" />
<missing-glyph horiz-adv-x="512" />
<glyph unicode="&#x20;" d="" horiz-adv-x="256" />
<glyph unicode="&#xe600;" d="M256 480c-141.385 0-256-114.615-256-256s114.615-256 256-256 256 114.615 256 256-114.615 256-256 256zM352.73 149.43c-0.021-21.587-17.211-39.813-40.289-43.39-8.777-1.359-17.283-0.872-25.523 2.433-22.231 8.912-28.049 34.201-12.046 52.084 12.735 14.231 28.941 18.781 47.417 17.078 2.483-0.229 4.979-0.354 7.474-0.425 0.789-0.022 1.588 0.289 2.819 0.535 0 38.315 0 76.519 0 115.843-35.701-4.718-71.203-9.41-107.137-14.159-0.174-2.76-0.439-5.022-0.441-7.285-0.024-45.65-0.125-91.301 0.073-136.951 0.039-9.004-2.364-16.896-8.323-23.394-15.009-16.368-33.157-25.043-55.8-20.61-14.972 2.931-24.711 13.314-27.123 27.79 0.017 2.362 0.034 4.727 0.051 7.089 4.637 21.501 21.22 34.541 45.589 35.958 5.934 0.346 11.853 0.96 18.356 1.498 0 57.71 0 114.944 0 173.058 51.528 7.933 102.569 15.792 154.224 23.745 0.291-2.667 0.679-4.568 0.68-6.47 0.032-68.142 0.070-136.285-0.001-204.427z" />
<glyph unicode="&#xe601;" d="M256 480c-141.376 0-256-114.624-256-256s114.624-256 256-256 256 114.624 256 256c0 141.408-114.624 256-256 256zM322.176 224.032l-41.952-0.032-0.032-153.6h-57.568v153.6h-38.4v52.928l38.4 0.032-0.064 31.168c0 43.2 11.712 69.472 62.56 69.472h42.368v-52.96h-26.496c-19.808 0-20.768-7.392-20.768-21.184l-0.064-26.496h47.616l-5.6-52.928z" />
<glyph unicode="&#xe602;" d="M256 480c-141.385 0-256-114.615-256-256s114.615-256 256-256 256 114.615 256 256-114.615 256-256 256zM408.028 71.972c-19.76-19.758-42.756-35.266-68.354-46.093-6.503-2.75-13.106-5.164-19.8-7.246v38.367c0 20.167-6.917 35-20.75 44.5 8.667 0.833 16.625 2 23.875 3.5s14.917 3.667 23 6.5 15.333 6.208 21.75 10.125 12.583 9 18.5 15.25 10.875 13.333 14.875 21.25 7.167 17.417 9.5 28.5 3.5 23.292 3.5 36.625c0 25.833-8.417 47.833-25.25 66 7.667 20 6.833 41.75-2.5 65.25l-6.25 0.75c-4.333 0.5-12.125-1.333-23.375-5.5s-23.875-11-37.875-20.5c-19.833 5.5-40.417 8.25-61.75 8.25-21.5 0-42-2.75-61.5-8.25-8.833 6-17.208 10.958-25.125 14.875s-14.25 6.583-19 8-9.167 2.292-13.25 2.625-6.708 0.417-7.875 0.25-2-0.333-2.5-0.5c-9.333-23.667-10.167-45.417-2.5-65.25-16.833-18.167-25.25-40.167-25.25-66 0-13.333 1.167-25.542 3.5-36.625s5.5-20.583 9.5-28.5 8.958-15 14.875-21.25 12.083-11.333 18.5-15.25 13.667-7.292 21.75-10.125 15.75-5 23-6.5 15.208-2.667 23.875-3.5c-13.667-9.333-20.5-24.167-20.5-44.5v-39.115c-7.549 2.247-14.99 4.902-22.3 7.994-25.597 10.827-48.594 26.335-68.353 46.093-19.758 19.759-35.267 42.757-46.093 68.354-11.199 26.479-16.878 54.631-16.878 83.674s5.679 57.195 16.879 83.675c10.827 25.597 26.335 48.594 46.093 68.353s42.756 35.267 68.353 46.093c26.48 11.2 54.632 16.879 83.675 16.879s57.195-5.679 83.675-16.879c25.599-10.827 48.595-26.335 68.354-46.093 19.758-19.758 35.266-42.756 46.093-68.353 11.199-26.48 16.878-54.632 16.878-83.675s-5.679-57.195-16.879-83.675c-10.827-25.596-26.335-48.595-46.093-68.353z" />
<glyph unicode="&#xe603;" d="M131.736 100.316c0-13.526 11.447-20.291 34.334-20.291 20.032 0 30.044 7.021 30.044 21.066 0 13.27-10.923 19.898-32.772 19.898-21.073 0.003-31.606-6.887-31.606-20.673zM426.674 480h-341.33c-46.938 0-85.344-38.405-85.344-85.344v-341.313c0-46.968 38.406-85.343 85.344-85.343h341.33c46.934 0 85.326 38.375 85.326 85.344v341.312c0 46.939-38.391 85.344-85.326 85.344zM237.864 275.506c-3.642-1.302-8.844-2.729-15.606-4.293 2.080-5.983 3.123-11.576 3.123-16.777 0-16.646-5.009-31.149-15.022-43.506-10.015-12.354-22.956-19.703-38.823-22.043-10.402-1.562-15.604-7.156-15.604-16.779 0-3.381 1.689-6.765 5.072-10.145 4.422-4.943 10.924-8.066 19.509-9.367 37.195-5.721 55.793-21.197 55.793-46.427 0-40.321-24.062-60.48-72.181-60.48-19.771 0-36.028 3.513-48.772 10.534-16.129 8.845-24.188 22.761-24.188 41.75 0 21.853 12.096 36.809 36.282 44.869v0.78c-8.842 5.462-13.263 13.785-13.263 24.972 0 14.566 4.162 23.672 12.484 27.311v0.781c-8.323 2.862-15.737 9.366-22.24 19.513-7.282 10.926-10.925 22.63-10.925 35.115 0 18.729 6.635 34.335 19.896 46.82 12.748 11.707 27.964 17.558 45.653 17.558 12.747 0 24.579-3.119 35.505-9.361 12.485 0 26.921 3.12 43.313 9.361l-0.006-40.186zM301.089 140.503h-44.093c0.521 5.201 0.779 14.042 0.779 26.532v121.346c0 12.227-0.262 20.682-0.779 25.359h44.093c-0.521-4.942-0.78-13.135-0.78-24.582v-119.782c0-13.267 0.259-22.892 0.78-28.873zM298.159 352.759c-5.332-5.722-11.642-8.581-18.923-8.581-7.543 0-13.979 2.859-19.313 8.581-5.333 5.726-8.001 12.486-8.001 20.289 0 8.067 2.668 14.956 8.001 20.683 5.333 5.721 11.771 8.584 19.313 8.584 7.281 0 13.592-2.863 18.923-8.584 5.333-5.728 7.999-12.615 7.999-20.683 0-7.803-2.666-14.564-7.999-20.289zM420.845 145.576c-9.627-5.205-21.203-7.803-34.729-7.803-18.985 0-32.124 6.76-39.405 20.287-5.465 10.145-8.193 26.14-8.193 47.989v69.842h0.39v0.781l-5.854 0.391c-3.382 0-7.806-0.391-13.267-1.171v37.848h19.117v15.216c0 7.285-0.39 13.14-1.17 17.56h45.259c-0.775-4.94-1.168-10.533-1.168-16.776v-15.999h33.942v-37.846c-1.299 0-3.705 0.129-7.218 0.389-3.512 0.261-6.828 0.393-9.949 0.393h-16.776v-72.572c0-17.433 5.725-26.146 17.167-26.146 8.062 0 15.348 2.209 21.854 6.632v-39.015zM160.608 279.797c-16.388 0-24.582-9.627-24.582-28.873 0-17.951 8.194-26.924 24.582-26.924 15.868 0 23.801 9.104 23.801 27.313 0 7.545-1.82 14.047-5.461 19.511-4.423 5.981-10.537 8.973-18.34 8.973z" />
<glyph unicode="&#xe604;" d="M70.677 473.329h370.652c35.2 0 64-26.061 64-64v-370.658c0-37.945-28.8-64-64-64h-370.652c-35.21 0-64.005 26.061-64.005 64v370.658c0 37.939 28.795 64 64.005 64v0zM369.925 417.925c-12.349 0-22.446-10.097-22.446-22.451v-53.734c0-12.35 10.096-22.451 22.446-22.451h56.361c12.344 0 22.446 10.102 22.446 22.451v53.734c0 12.354-10.102 22.451-22.446 22.451h-56.361zM448.973 262.451h-43.894c4.152-13.558 6.4-27.92 6.4-42.783 0-82.944-69.401-150.18-155.003-150.18-85.596 0-154.993 67.236-154.993 150.18 0 14.869 2.243 29.225 6.4 42.783h-45.798v-210.642c0-10.901 8.919-19.825 19.825-19.825h347.249c10.901 0 19.825 8.919 19.825 19.825v210.642h-0.010zM256.471 322.12c-55.306 0-100.147-43.443-100.147-97.040s44.841-97.040 100.147-97.040c55.312 0 100.158 43.443 100.158 97.040s-44.841 97.040-100.158 97.040z" />
<glyph unicode="&#xe605;" d="M330.414 224.798c0-39.636-33.158-71.767-74.061-71.767s-74.061 32.131-74.061 71.767c0 39.636 33.158 71.767 74.061 71.767s74.061-32.131 74.061-71.767zM370.985 220.795c0-61.343-51.323-111.068-114.632-111.068s-114.632 49.726-114.632 111.068c0 10.993 1.659 21.612 4.731 31.642h-33.874v-155.786c0-8.069 6.594-14.663 14.659-14.663h256.814c8.069 0 14.669 6.594 14.669 14.663v155.786h-32.466c3.067-10.030 4.731-20.649 4.731-31.642zM340.26 294.477h41.682c9.134 0 16.599 7.465 16.599 16.599v39.741c0 9.139-7.465 16.604-16.599 16.604h-41.682c-9.139 0-16.604-7.465-16.604-16.604v-39.741c-0.005-9.129 7.465-16.599 16.604-16.599zM256 474.24c-138.204 0-250.24-112.036-250.24-250.24s112.036-250.24 250.24-250.24 250.24 112.036 250.24 250.24-112.036 250.24-250.24 250.24zM393.058 39.603h-274.115c-26.046 0-47.34 19.272-47.34 47.329v274.13c0 28.063 21.294 47.334 47.34 47.334h274.115c26.041 0 47.339-19.272 47.339-47.334v-274.13c0-28.058-21.299-47.329-47.339-47.329z" />
<glyph unicode="&#xe606;" d="M256 480c-141.376 0-256-114.624-256-256s114.624-256 256-256 256 114.624 256 256c0 141.408-114.624 256-256 256zM192 100h-64v224h64v-224zM161.984 337.728c-16.576 0-29.984 13.44-29.984 30.016s13.44 30.016 29.984 30.016c16.576-0.032 30.016-13.472 30.016-30.016 0-16.576-13.44-30.016-30.016-30.016zM416 100h-64v138.496c0 16.224-4.64 27.584-24.576 27.584-33.056 0-39.424-27.584-39.424-27.584v-138.496h-64v224h64v-21.408c9.152 7.008 32 21.376 64 21.376 20.736 0 64-12.416 64-87.424v-136.544z" />
<glyph unicode="&#xe607;" d="M117.951 479.149h276.098c64.874 0 117.1-52.226 117.1-117.1v-276.099c0-64.874-52.226-117.1-117.1-117.1h-276.099c-64.874 0-117.1 52.226-117.1 117.1v276.099c0 64.873 52.227 117.1 117.1 117.1zM255.542 448.31c-121.077 0-219.224-98.147-219.224-219.224s98.147-219.224 219.224-219.224c121.077 0 219.223 98.147 219.223 219.224s-98.147 219.224-219.224 219.224zM255.542 424.114c107.698 0 195.028-87.33 195.028-195.028s-87.33-195.028-195.028-195.028c-107.698 0-194.845 87.33-194.845 195.028s87.147 195.028 194.845 195.028zM346.897 375.318l-152.204-41.107v-61.839h0.177v-110.565c-6.652 4.001-14.806 6.378-23.566 6.378-22.565 0-40.753-15.67-40.753-34.906s18.188-34.728 40.753-34.728c22.565 0 41.734 15.51 40.93 34.728l-0.413 9.864-1.005 133.657 120.133 32.425v-122.082c-7.015 4.834-15.969 7.796-25.692 7.796-22.565 0-40.753-15.67-40.753-34.906s18.188-34.728 40.753-34.728c22.565 0 41.533 15.493 41.533 34.728 0 0.18 0.003 0.352 0 0.531l0.106 152.913v61.838z" />
<glyph unicode="&#xe608;" d="M426.655 480h-341.31c-46.94 0-85.345-38.392-85.345-85.329v-341.328c0-46.938 38.405-85.343 85.345-85.343h341.311c46.969 0 85.344 38.405 85.344 85.343v341.328c0 46.937-38.375 85.329-85.345 85.329zM128 352h256c4.569 0 9.002-0.981 13.072-2.831l-141.072-164.584-141.072 164.585c4.070 1.848 8.503 2.83 13.072 2.83zM96 128v192c0 0.67 0.028 1.336 0.070 2l93.832-109.471-92.799-92.799c-0.722 2.668-1.103 5.443-1.103 8.27zM384 96h-256c-2.827 0-5.601 0.381-8.27 1.104l91.059 91.059 45.211-52.749 45.212 52.747 91.058-91.060c-2.67-0.72-5.443-1.101-8.27-1.101zM416 128c0-2.827-0.381-5.6-1.103-8.27l-92.8 92.799 93.833 109.471c0.042-0.664 0.070-1.33 0.070-2v-192z" />
<glyph unicode="&#xe609;" d="M256 480c-141.398 0-256-114.613-256-256 0-141.392 114.603-256 256-256 141.387 0 256 114.608 256 256 0 141.387-114.613 256-256 256zM273.51 163.291c-16.416 1.269-23.302 9.397-36.154 17.211-7.072-37.094-15.718-72.661-41.322-91.238-7.904 56.075 11.606 98.182 20.656 142.891-15.44 25.994 1.867 78.32 34.438 65.424 40.075-15.856-34.709-96.646 15.488-106.742 52.426-10.534 73.824 90.954 41.322 123.957-46.971 47.648-136.709 1.082-125.674-67.147 2.688-16.683 19.915-21.738 6.886-44.762-30.064 6.666-39.029 30.363-37.877 61.978 1.856 51.728 46.49 87.952 91.238 92.966 56.603 6.336 109.738-20.779 117.072-74.026 8.267-60.106-25.546-125.2-86.070-120.512z" />
<glyph unicode="&#xe60a;" d="M256 480c-141.376 0-256-114.624-256-256s114.624-256 256-256 256 114.624 256 256c0 141.408-114.624 256-256 256zM275.968 154.784c-18.72 1.44-26.56 10.72-41.216 19.648-8.064-42.304-17.92-82.88-47.104-104.032-9.024 63.904 13.216 111.904 23.552 162.88-17.6 29.664 2.112 89.28 39.232 74.592 45.664-18.080-39.584-110.176 17.664-121.696 59.744-12 84.16 103.712 47.104 141.344-53.568 54.336-155.84 1.248-143.264-76.544 3.072-19.008 22.688-24.768 7.84-51.040-34.272 7.552-44.512 34.624-43.2 70.656 2.112 58.976 52.992 100.256 104.032 105.984 64.544 7.232 125.088-23.68 133.44-84.384 9.44-68.512-29.12-142.752-98.080-137.408z" />
<glyph unicode="&#xe60b;" d="M416 480h-320c-53.024 0-96-42.976-96-96v-320c0-53.024 42.976-96 96-96h320c53.024 0 96 42.976 96 96v320c0 53.024-42.976 96-96 96zM275.968 154.784c-18.72 1.44-26.56 10.72-41.216 19.648-8.064-42.304-17.92-82.88-47.104-104.032-9.024 63.904 13.216 111.904 23.552 162.88-17.6 29.664 2.112 89.28 39.232 74.592 45.664-18.080-39.584-110.176 17.664-121.696 59.744-12 84.16 103.712 47.104 141.344-53.568 54.336-155.84 1.248-143.264-76.544 3.072-19.008 22.688-24.768 7.84-51.040-34.272 7.552-44.512 34.624-43.2 70.656 2.112 58.976 52.992 100.256 104.032 105.984 64.544 7.232 125.088-23.68 133.44-84.384 9.44-68.512-29.12-142.752-98.080-137.408z" />
<glyph unicode="&#xe60c;" d="M426.67 480h-341.327c-46.938 0-85.343-38.406-85.343-85.344v-341.314c0-46.967 38.406-85.342 85.344-85.342h341.326c46.938 0 85.33 38.374 85.33 85.342v341.314c0 46.938-38.392 85.344-85.33 85.344zM139.472 64.376c-23.985 0-43.472 19.346-43.472 43.313 0 23.843 19.486 43.406 43.472 43.406 24.079 0 43.53-19.563 43.53-43.406-0.001-23.967-19.452-43.313-43.53-43.313zM248.734 64.002c0 40.905-15.904 79.409-44.73 108.223-28.857 28.875-67.188 44.812-107.952 44.812v62.593c118.826 0 215.563-96.721 215.563-215.627l-62.881-0.001zM359.814 64.002c0 145.531-118.33 263.97-263.688 263.97v62.624c180.001 0 326.473-146.562 326.473-326.596l-62.785 0.002z" />
<glyph unicode="&#xe60d;" d="M256 480c-141.385 0-256-114.615-256-256s114.615-256 256-256 256 114.615 256 256-114.615 256-256 256zM160 96c-17.673 0-32 14.327-32 32s14.327 32 32 32 32-14.327 32-32-14.327-32-32-32zM248 96c0 66.168-53.832 120-120 120v48c92.636 0 168-75.364 168-168h-48zM344 96c0 57.695-22.468 111.938-63.266 152.735-40.796 40.797-95.038 63.265-152.734 63.265v48c70.517 0 136.812-27.461 186.677-77.324 49.862-49.863 77.323-116.158 77.323-186.676h-48z" />
<glyph unicode="&#xe60e;" d="M416 480h-320c-53.024 0-96-42.976-96-96v-320c0-53.024 42.976-96 96-96h320c53.024 0 96 42.976 96 96v320c0 53.024-42.976 96-96 96zM184.576 51.744c-56.672 0-104.48 23.072-104.48 59.936 0 37.408 43.616 73.536 100.288 73.504l17.696 0.16c-7.744 7.52-13.888 16.768-13.888 28.192 0 6.784 2.176 13.28 5.184 19.072l-9.44-0.32c-46.56 0-77.728 33.12-77.728 74.176 0 40.16 43.040 74.816 88.8 74.816h102.080l-22.912-16.512h-32.352c21.472-8.256 32.896-33.28 32.896-58.944 0-21.536-11.936-40.096-28.8-53.28-16.48-12.896-19.584-18.272-19.584-29.216 0-9.344 17.664-25.216 26.88-31.776 26.976-19.072 35.648-36.768 35.648-66.304 0-36.864-35.68-73.504-100.288-73.504zM448 255.392h-64v-63.904h-31.968v63.904h-64.032v32.608h64.032v64h31.968v-64h64v-32.608zM234.048 303.84c-4.544 34.496-29.536 62.208-55.808 63.008-26.272 0.768-43.904-25.632-39.36-60.192 4.544-34.528 29.536-63.168 55.84-63.936 26.24-0.8 43.904 26.56 39.328 61.12zM216.608 171.552c-7.744 2.496-16.288 4-25.408 4.096-39.168 0.416-74.24-23.872-74.24-53.088 0-29.824 28.288-54.592 67.456-54.592 55.072 0 74.24 23.296 74.24 53.056 0 3.584-0.448 7.104-1.248 10.528-4.288 16.896-19.552 25.248-40.8 40z" />
<glyph unicode="&#xe60f;" d="M256 480c-141.376 0-256-114.624-256-256s114.624-256 256-256 256 114.624 256 256c0 141.408-114.624 256-256 256zM413.28 166.688c-1.728-21.312-17.92-48.512-40.544-52.448-72.448-5.632-158.368-4.928-233.44 0-23.424 2.944-38.816 31.168-40.544 52.448-3.648 44.736-3.648 70.208 0 114.944 1.728 21.28 17.504 49.344 40.544 51.904 74.208 6.24 160.576 4.896 233.44 0 26.080-0.96 38.816-27.808 40.544-49.12 3.584-44.736 3.584-72.992 0-117.728zM224 160l96 64-96 64z" />
<glyph unicode="&#xe610;" d="M416 480h-320c-53.024 0-96-42.976-96-96v-320c0-53.024 42.976-96 96-96h320c53.024 0 96 42.976 96 96v320c0 53.024-42.976 96-96 96zM322.176 224.032l-41.952-0.032-0.032-153.6h-57.568v153.6h-38.4v52.928l38.4 0.032-0.064 31.168c0 43.2 11.712 69.472 62.56 69.472h42.368v-52.96h-26.496c-19.808 0-20.768-7.392-20.768-21.184l-0.064-26.496h47.616l-5.6-52.928z" />
<glyph unicode="&#xe611;" d="M416 480h-320c-53.024 0-96-42.976-96-96v-320c0-53.024 42.976-96 96-96h320c53.024 0 96 42.976 96 96v320c0 53.024-42.976 96-96 96zM192 100h-64v224h64v-224zM161.984 337.728c-16.576 0-29.984 13.44-29.984 30.016s13.44 30.016 29.984 30.016c16.576-0.032 30.016-13.472 30.016-30.016 0-16.576-13.44-30.016-30.016-30.016zM416 100h-64v138.496c0 16.224-4.64 27.584-24.576 27.584-33.056 0-39.424-27.584-39.424-27.584v-138.496h-64v224h64v-21.408c9.152 7.008 32 21.376 64 21.376 20.736 0 64-12.416 64-87.424v-136.544z" />
<glyph unicode="&#xe612;" d="M416 480h-320c-53.024 0-96-42.976-96-96v-320c0-53.024 42.976-96 96-96h320c53.024 0 96 42.976 96 96v320c0 53.024-42.976 96-96 96zM383.36 281.472l0.192-8.16c0-83.328-63.392-179.328-179.328-179.328-35.584 0-68.704 10.432-96.608 28.32 4.928-0.576 9.952-0.896 15.040-0.896 29.536 0 56.704 10.080 78.272 26.976-27.584 0.512-50.848 18.752-58.88 43.776 3.872-0.736 7.776-1.088 11.872-1.088 5.76 0 11.328 0.736 16.608 2.176-28.832 5.824-50.56 31.264-50.56 61.792v0.8c8.512-4.736 18.208-7.552 28.544-7.904-16.896 11.296-28.032 30.592-28.032 52.448 0 11.552 3.104 22.368 8.512 31.68 31.072-38.144 77.536-63.232 129.92-65.856-1.088 4.608-1.632 9.44-1.632 14.368 0 34.784 28.224 63.008 63.040 63.008 18.112 0 34.496-7.648 46.016-19.904 14.336 2.848 27.84 8.096 40.032 15.296-4.704-14.72-14.688-27.072-27.712-34.88 12.704 1.504 24.896 4.928 36.192 9.92-8.448-12.608-19.168-23.712-31.488-32.544z" />
<glyph unicode="&#xe613;" d="M416 480h-320c-53.024 0-96-42.976-96-96v-320c0-53.024 42.976-96 96-96h320c53.024 0 96 42.976 96 96v320c0 53.024-42.976 96-96 96zM138.080 64.736c-23.008 0-41.696 18.56-41.696 41.568 0 22.848 18.688 41.632 41.696 41.632 23.072 0 41.728-18.784 41.76-41.632 0-22.976-18.656-41.568-41.76-41.568zM242.848 64.384c0 39.296-15.264 76.192-42.912 103.776-27.648 27.712-64.416 43.008-103.488 43.008v60.032c113.952 0 206.72-92.768 206.72-206.816h-60.32zM349.376 64.448c0 139.552-113.44 253.12-252.864 253.12v60.032c172.608 0 313.088-140.544 313.088-313.152h-60.224z" />
<glyph unicode="&#xe614;" d="M256 480c-141.376 0-256-114.624-256-256s114.624-256 256-256 256 114.624 256 256c0 141.408-114.624 256-256 256zM138.080 64.736c-23.008 0-41.696 18.56-41.696 41.568 0 22.848 18.688 41.632 41.696 41.632 23.072 0 41.728-18.784 41.76-41.632 0-22.976-18.656-41.568-41.76-41.568zM242.848 64.384c0 39.296-15.264 76.192-42.912 103.776-27.648 27.712-64.416 43.008-103.488 43.008v60.032c113.952 0 206.72-92.768 206.72-206.816h-60.32zM349.376 64.448c0 139.552-113.44 253.12-252.864 253.12v60.032c172.608 0 313.088-140.544 313.088-313.152h-60.224z" />
<glyph unicode="&#xe615;" d="M256 480c-141.376 0-256-114.624-256-256s114.624-256 256-256 256 114.624 256 256c0 141.408-114.624 256-256 256zM383.36 281.472l0.192-8.16c0-83.328-63.392-179.328-179.328-179.328-35.584 0-68.704 10.432-96.608 28.32 4.928-0.576 9.952-0.896 15.040-0.896 29.536 0 56.704 10.080 78.272 26.976-27.584 0.512-50.848 18.752-58.88 43.776 3.872-0.736 7.776-1.088 11.872-1.088 5.76 0 11.328 0.736 16.608 2.176-28.832 5.824-50.56 31.264-50.56 61.792v0.8c8.512-4.736 18.208-7.552 28.544-7.904-16.896 11.296-28.032 30.592-28.032 52.448 0 11.552 3.104 22.368 8.512 31.68 31.072-38.144 77.536-63.232 129.92-65.856-1.088 4.608-1.632 9.44-1.632 14.368 0 34.784 28.224 63.008 63.040 63.008 18.112 0 34.496-7.648 46.016-19.904 14.336 2.848 27.84 8.096 40.032 15.296-4.704-14.72-14.688-27.072-27.712-34.88 12.704 1.504 24.896 4.928 36.192 9.92-8.448-12.608-19.168-23.712-31.488-32.544z" />
<glyph unicode="&#xe616;" d="M256 480c-141.376 0-256-114.624-256-256s114.624-256 256-256 256 114.624 256 256c0 141.408-114.624 256-256 256zM408.064 293.664c-17.184-96.704-113.088-178.592-141.92-197.28-28.864-18.688-55.168 7.488-64.736 27.328-10.912 22.528-43.648 145.024-52.224 155.168s-34.304-10.144-34.304-10.144l-12.48 16.352c0 0 52.256 62.368 92 70.208 42.144 8.288 42.080-64.736 52.224-105.248 9.824-39.2 16.384-61.6 24.96-61.6s24.992 21.824 42.88 55.328c17.984 33.536-0.768 63.168-35.872 42.112 14.080 84.192 146.624 104.448 129.472 7.776z" />
<glyph unicode="&#xe617;" d="M256 480c-141.376 0-256-114.624-256-256s114.624-256 256-256 256 114.624 256 256c0 141.408-114.624 256-256 256zM184.576 51.744c-56.672 0-104.48 23.072-104.48 59.936 0 37.408 43.616 73.536 100.288 73.504l17.696 0.16c-7.744 7.52-13.888 16.768-13.888 28.192 0 6.784 2.176 13.28 5.184 19.072l-9.44-0.32c-46.56 0-77.728 33.12-77.728 74.176 0 40.16 43.040 74.816 88.8 74.816h102.080l-22.912-16.512h-32.352c21.472-8.256 32.896-33.28 32.896-58.944 0-21.536-11.936-40.096-28.8-53.28-16.48-12.896-19.584-18.272-19.584-29.216 0-9.344 17.664-25.216 26.88-31.776 26.976-19.072 35.648-36.768 35.648-66.304 0-36.864-35.68-73.504-100.288-73.504zM384 255.392v-63.904h-31.968v63.904h-64.032v32.608h64.032v64h31.968v-64h64v-32.608h-64zM216.608 171.552c-7.744 2.496-16.288 4-25.408 4.096-39.168 0.416-74.24-23.872-74.24-53.088 0-29.824 28.288-54.592 67.456-54.592 55.072 0 74.24 23.296 74.24 53.056 0 3.584-0.448 7.104-1.248 10.528-4.288 16.896-19.552 25.248-40.8 40zM234.048 303.84c-4.544 34.496-29.536 62.208-55.808 63.008-26.272 0.768-43.904-25.632-39.36-60.192 4.544-34.528 29.536-63.168 55.84-63.936 26.24-0.8 43.904 26.56 39.328 61.12z" />
<glyph unicode="&#xe618;" d="M256 480c-141.385 0-256-114.615-256-256s114.615-256 256-256 256 114.615 256 256-114.615 256-256 256zM334.903 97.25c-13.224-25.037-33.802-40.808-62.29-43.775-23.731-2.471-45.784 2.574-63.3 20.477-1.241 1.267-2.611 2.408-4.48 4.121-1.061-2.78-1.873-4.879-2.663-6.986-4.231-11.273-13.652-17.911-25.615-18.042-11.853-0.131-20.537 5.58-24.938 17.107-1.502 3.933-2.46 8.342-2.467 12.535-0.106 65.463-0.046 130.927 0.059 196.391 0.017 10.487 0.464 20.974 0.658 31.461 0.297 16.080 11.099 27.961 25.74 28.251 15.778 0.312 27.966-11.547 28.353-27.982 0.49-20.81 0.701-41.626 1.043-62.439 0.027-1.641 0.139-3.28 0.278-6.447 2.431 1.826 3.901 2.782 5.203 3.929 26.797 23.629 70.939 23.79 98.604 5.646 19.762-12.962 31.225-32.254 36.046-55.025 7.203-34.031 6.453-67.633-10.231-99.222zM377.676 329.068c-3.836-2.647-7.733-5.209-11.67-7.703-12.438-7.879-24.132-16.591-32.309-29.077-4.806 5.138-8.777 10.588-13.888 14.581-8.638 6.746-17.979 12.592-27.055 18.774-8.982 6.119-17.174 12.933-19.188 24.41-2.941 16.758 3.952 37.836 26.396 42.086 1.688-0.001 3.377-0.003 5.065-0.004 13.033-2.085 21.87-9.774 27.833-21.458 3.067 4.009 5.54 7.923 8.673 11.207 8.98 9.413 20.217 11.792 32.077 7.5 12.324-4.46 17.921-14.673 19.44-27.36 1.702-14.199-3.826-24.985-15.374-32.956zM293.5 157.303c0-32.24-19.923-58.377-44.5-58.377s-44.5 26.137-44.5 58.377c0 32.24 19.923 58.377 44.5 58.377s44.5-26.137 44.5-58.377z" />
<glyph unicode="&#xe619;" d="M256 474.24c-138.199 0-250.24-112.036-250.24-250.24s112.041-250.24 250.24-250.24 250.24 112.036 250.24 250.24-112.041 250.24-250.24 250.24zM45.383 155.925c-0.138-0.988-0.85-1.685-1.741-1.685-0.896 0-1.613 0.697-1.736 1.695l-3.179 23.721 3.179 24.13c0.118 1.003 0.84 1.705 1.736 1.705 0.891 0 1.602-0.697 1.741-1.695l3.769-24.146-3.769-23.726zM61.532 141.486c-0.154-1.029-0.901-1.751-1.813-1.751-0.922 0-1.679 0.738-1.807 1.756l-4.27 38.164 4.27 39.024c0.123 1.019 0.886 1.756 1.807 1.756 0.916 0 1.659-0.717 1.813-1.756l4.854-39.024-4.854-38.169zM78.966 135.030c-0.133-1.234-1.049-2.125-2.181-2.125-1.147 0-2.058 0.891-2.176 2.135l-4.055 44.606c0 0 4.055 46.3 4.055 46.305 0.112 1.234 1.029 2.13 2.176 2.13 1.132 0 2.043-0.896 2.181-2.13l4.603-46.305-4.603-44.615zM96.548 133.611c-0.123-1.418-1.219-2.498-2.544-2.498-1.352 0-2.453 1.080-2.56 2.498l-3.83 46.024 3.83 47.575c0.108 1.434 1.209 2.509 2.56 2.509 1.326 0 2.422-1.075 2.544-2.494l4.352-47.586-4.352-46.029zM114.268 133.233c-0.108-1.634-1.372-2.877-2.918-2.877-1.561 0-2.821 1.244-2.924 2.877l-3.615 46.402 3.615 44.13c0.108 1.643 1.367 2.882 2.924 2.882 1.552 0 2.811-1.239 2.918-2.862l4.101-44.15-4.101-46.403zM132.132 133.212v0.021c-0.107-1.822-1.546-3.257-3.292-3.257-1.761 0-3.2 1.433-3.297 3.246l-3.385 46.397 3.385 71.803c0.097 1.828 1.536 3.256 3.297 3.256 1.746 0 3.184-1.429 3.292-3.251l3.84-71.808-3.84-46.407zM149.863 133.248v0.026c-0.092-2.038-1.705-3.625-3.666-3.625-1.966 0-3.574 1.587-3.65 3.615l-3.184 46.111c0 0 3.169 88.212 3.169 88.217 0.092 2.033 1.7 3.625 3.666 3.625 1.961 0 3.574-1.592 3.666-3.625l3.589-88.217-3.589-46.126zM168.269 133.954v0.026c-0.092-2.243-1.853-3.993-4.024-3.993-2.186 0-3.958 1.751-4.035 3.973l-2.954 45.639c0 0 2.954 95.575 2.954 95.586 0.077 2.242 1.849 3.998 4.035 3.998 2.171 0 3.938-1.756 4.024-3.998l3.338-95.586-3.338-45.645zM186.553 134.262c-0.071-2.447-2.012-4.368-4.398-4.368-2.406 0-4.332 1.92-4.393 4.347l-2.744 45.353 2.734 98.8c0.077 2.452 2.002 4.377 4.403 4.377 2.391 0 4.332-1.92 4.398-4.377l3.088-98.806-3.088-45.327zM204.969 134.656v0.036c-0.071-2.658-2.166-4.757-4.772-4.757-2.617 0-4.71 2.099-4.767 4.731l-2.524 44.918 2.509 96.281c0.071 2.663 2.166 4.746 4.782 4.746 2.606 0 4.7-2.078 4.772-4.736l2.841-96.292-2.841-44.928zM223.534 134.938v0.036c-0.056-2.873-2.32-5.12-5.145-5.12-2.821 0-5.089 2.248-5.145 5.084l-2.299 44.642 2.299 92.769c0.056 2.873 2.325 5.12 5.145 5.12 2.826 0 5.089-2.253 5.145-5.12l2.576-92.779-2.576-44.631zM242.468 139.632l-0.231-4.377c-0.025-1.51-0.666-2.887-1.659-3.881-0.999-0.988-2.361-1.608-3.856-1.608-1.685 0-3.2 0.778-4.219 1.997-0.748 0.896-1.224 2.043-1.28 3.277-0.010 0.062-0.016 0.123-0.016 0.19 0 0-2.089 44.308-2.089 44.375l2.069 109.322 0.020 1.039c0.025 1.93 1.034 3.625 2.544 4.603 0.855 0.563 1.869 0.896 2.97 0.896 1.116 0 2.171-0.348 3.047-0.942 1.459-0.988 2.437-2.658 2.468-4.552l2.314-110.402-2.084-39.936zM260.864 135.849v0.051c-0.062-3.231-2.688-5.868-5.888-5.868-3.21 0-5.852 2.632-5.893 5.822l-1.188 21.55-1.219 22.144 2.401 119.798 0.010 0.604c0.020 1.822 0.87 3.451 2.186 4.531 1.008 0.84 2.304 1.341 3.712 1.341 1.095 0 2.119-0.313 2.99-0.845 1.695-1.029 2.862-2.893 2.898-5.017l2.606-120.412-2.616-43.699zM419.825 129.92c0 0-148.014-0.015-148.157 0-3.2 0.322-5.735 2.862-5.77 6.134 0 0 0 169.631 0 169.636 0.036 3.118 1.106 4.72 5.14 6.282 10.373 4.019 22.134 6.39 34.186 6.39 49.285 0 89.671-37.786 93.931-85.95 6.359 2.662 13.348 4.147 20.669 4.147 29.522 0 53.442-23.931 53.442-53.447s-23.921-53.192-53.442-53.192z" />
<glyph unicode="&#xe61a;" d="M426.686 480h-341.342c-46.937 0-85.343-38.403-85.343-85.34v-234.658l7.999 31.998h16l8-32-8-32h-16l-8 31.998v-106.652c0.001-46.969 38.407-85.346 85.344-85.346h341.341c46.94 0 85.315 38.377 85.315 85.346v106.101c0-35.039-29.541-63.447-65.993-63.447-1.177 0-182.776 0.088-182.944 0.105-3.941 0.381-7.062 3.615-7.062 7.498v201.357c0 3.697 1.309 5.606 6.289 7.458 12.818 4.767 27.268 7.582 42.159 7.582 60.854 0 110.746-44.851 115.999-102.029 7.857 3.168 16.488 4.928 25.531 4.928 36.453 0 66.021-28.412 66.021-63.45v235.21c0 46.938-38.379 85.341-85.314 85.341zM88 96h-16l-8 64 8 64h16l8-64-8-64zM152 96h-16l-8 81.375 8 78.625h16l8-80-8-80zM216 96h-16l-8 112.109 8 111.891h16l8-111.891-8-112.109z" />
<glyph unicode="&#xe61b;" d="M416 480h-320c-53.024 0-96-42.976-96-96v-320c0-53.024 42.976-96 96-96h320c53.024 0 96 42.976 96 96v320c0 53.024-42.976 96-96 96zM408.064 293.664c-17.184-96.704-113.088-178.592-141.92-197.28-28.864-18.688-55.168 7.488-64.736 27.328-10.912 22.528-43.648 145.024-52.224 155.168s-34.304-10.144-34.304-10.144l-12.48 16.352c0 0 52.256 62.368 92 70.208 42.144 8.288 42.080-64.736 52.224-105.248 9.824-39.2 16.384-61.6 24.96-61.6s24.992 21.824 42.88 55.328c17.984 33.536-0.768 63.168-35.872 42.112 14.080 84.192 146.624 104.448 129.472 7.776z" />
<glyph unicode="&#xe61c;" d="M259.371 207.648l59.015-157.472c0.39-0.925 0.866-1.774 1.375-2.577-19.956-6.841-41.401-10.6-63.759-10.6-18.847 0-37.036 2.69-54.244 7.619l57.613 163.030zM448 224.003c0-68.985-38.388-129.215-95.47-161.629l58.643 165.136c10.956 26.677 14.603 48.010 14.603 66.975 0 6.886-0.47 13.274-1.294 19.229 14.988-26.631 23.518-57.196 23.518-89.711zM64 224.004c0 27.112 5.972 52.849 16.626 76.103l91.589-244.392c-64.054 30.305-108.215 94.276-108.215 168.289zM95.582 326.716c34.329 50.761 93.342 84.284 160.422 84.284 49.984 0 95.496-18.613 129.654-49.098-0.828 0.049-1.635 0.151-2.488 0.151-18.86 0-32.243-16.001-32.243-33.188 0-15.411 9.131-28.448 18.86-43.858 7.3-12.453 15.827-28.454 15.827-51.571 0-16-6.318-34.575-14.608-60.45l-19.156-62.316-69.39 201.009c11.558 0.589 21.974 1.775 21.974 1.775 10.348 1.194 9.129 16.002-1.223 15.411 0 0-31.102-2.376-51.175-2.376-18.867 0-50.567 2.376-50.567 2.376-10.355 0.59-11.57-14.815-1.219-15.411 0 0 9.795-1.183 20.139-1.775l29.911-79.825-42.022-122.728-69.917 202.553c11.571 0.591 21.976 1.775 21.976 1.775 10.337 1.194 9.116 16.002-1.229 15.411 0 0-31.093-2.376-51.17-2.376-3.603 0-7.851 0.086-12.356 0.227zM426 480h-340c-47.3 0-86-38.7-86-86v-340c0-47.3 38.7-86 86-86h340c47.3 0 86 38.7 86 86v340c0 47.3-38.7 86-86 86zM480 224c0-123.712-100.288-224-224-224s-224 100.288-224 224 100.288 224 224 224 224-100.288 224-224z" />
<glyph unicode="&#xe61d;" d="M362.532 231.966c0 19.507-6.999 33.009-13.005 43.525-8.002 13-15.503 24.003-15.503 37.008 0 14.51 11.003 28.011 26.506 28.011 0.697 0 1.367-0.087 2.043-0.123-28.078 25.718-65.48 41.426-106.563 41.426-55.137 0-103.634-28.283-131.856-71.132 3.702-0.107 7.194-0.19 10.158-0.19 16.507 0 42.055 2.007 42.055 2.007 8.505 0.507 9.508-11.996 1.014-13 0 0-8.55-1.004-18.058-1.5l57.457-170.947 34.54 103.572-24.591 67.364c-8.494 0.496-16.548 1.5-16.548 1.5-8.499 0.502-7.506 13.501 0.999 13 0 0 26.061-2.002 41.559-2.002 16.507 0 42.066 2.002 42.066 2.002 8.514 0.502 9.508-11.991 1.009-13 0 0-8.571-1.004-18.063-1.5l57.031-169.641 15.739 52.598c6.825 21.837 12.012 37.514 12.012 51.021zM98.197 224.005c0-62.464 36.306-116.444 88.945-142.024l-75.284 206.244c-8.755-19.62-13.66-41.344-13.66-64.22zM258.775 210.202l-47.355-137.579c14.142-4.163 29.092-6.436 44.585-6.436 18.375 0 35.998 3.18 52.403 8.95-0.43 0.676-0.809 1.387-1.127 2.176l-48.507 132.889zM335.334 87.598c46.92 27.356 78.474 78.188 78.474 136.402 0.005 27.438-7.004 53.233-19.333 75.714 0.681-5.022 1.065-10.425 1.065-16.226 0-16.016-2.985-34.017-12.002-56.525l-48.205-139.367zM256 474.24c-138.204 0-250.24-112.036-250.24-250.24s112.036-250.24 250.24-250.24 250.24 112.036 250.24 250.24-112.036 250.24-250.24 250.24zM256.005 48.481c-96.778 0-175.518 78.74-175.518 175.524 0 96.778 78.736 175.514 175.518 175.514 96.773 0 175.504-78.736 175.504-175.514 0.005-96.784-78.725-175.524-175.504-175.524z" />
<glyph unicode="&#xe61e;" d="M416 480h-320c-53.024 0-96-42.976-96-96v-320c0-53.024 42.976-96 96-96h320c53.024 0 96 42.976 96 96v320c0 53.024-42.976 96-96 96zM413.28 166.688c-1.728-21.312-17.92-48.512-40.544-52.448-72.448-5.632-158.368-4.928-233.44 0-23.424 2.944-38.816 31.168-40.544 52.448-3.648 44.736-3.648 70.208 0 114.944 1.728 21.28 17.504 49.344 40.544 51.904 74.208 6.24 160.576 4.896 233.44 0 26.080-0.96 38.816-27.808 40.544-49.12 3.584-44.736 3.584-72.992 0-117.728zM224 160l96 64-96 64z" />
<glyph unicode="&#xe61f;" d="M417 480h-322c-52.467 0-95-42.533-95-95v-322c0-52.467 42.533-95 95-95h322c52.467 0 95 42.533 95 95v322c0 52.467-42.533 95-95 95zM333.903 95.25c-13.224-25.037-33.802-40.808-62.29-43.775-23.731-2.471-45.784 2.574-63.3 20.477-1.241 1.267-2.611 2.408-4.48 4.121-1.061-2.78-1.873-4.879-2.663-6.986-4.231-11.273-13.652-17.911-25.615-18.042-11.853-0.131-20.537 5.58-24.938 17.107-1.502 3.933-2.46 8.342-2.467 12.535-0.106 65.463-0.046 130.927 0.059 196.391 0.017 10.487 0.464 20.974 0.658 31.461 0.297 16.080 11.099 27.961 25.74 28.251 15.778 0.312 27.966-11.547 28.353-27.982 0.49-20.81 0.701-41.626 1.043-62.439 0.027-1.641 0.139-3.28 0.278-6.447 2.431 1.826 3.901 2.782 5.203 3.929 26.797 23.629 70.939 23.79 98.604 5.646 19.762-12.962 31.225-32.254 36.046-55.025 7.203-34.031 6.453-67.633-10.231-99.222zM377.676 329.068c-3.836-2.647-7.733-5.209-11.67-7.703-12.438-7.879-24.132-16.591-32.309-29.077-4.806 5.138-8.777 10.588-13.888 14.581-8.638 6.746-17.979 12.592-27.055 18.774-8.982 6.119-17.174 12.933-19.188 24.41-2.941 16.758 3.952 37.836 26.396 42.086 1.688-0.001 3.377-0.003 5.065-0.004 13.033-2.085 21.87-9.774 27.833-21.458 3.067 4.009 5.54 7.923 8.673 11.207 8.98 9.413 20.217 11.792 32.077 7.5 12.324-4.46 17.921-14.673 19.44-27.36 1.702-14.199-3.826-24.985-15.374-32.956zM293.5 157.303c0-32.24-19.923-58.377-44.5-58.377s-44.5 26.137-44.5 58.377c0 32.24 19.923 58.377 44.5 58.377s44.5-26.137 44.5-58.377z" />
<glyph unicode="&#xe620;" d="M84.957 137.377c4.828-0.006 9.657-0.012 14.485-0.018-4.412-0.334-8.823-0.669-13.553-1.027 0-5.726 0-11.127 0-16.528-0.311-0.029-0.621-0.059-0.932-0.088 0 5.888 0 11.774 0 17.661zM125.097 170.292c1.874 0 3.746 0 5.62 0 0.007-0.216 0.023-0.432 0.048-0.646-1.904-0.009-3.807-0.018-5.71-0.026 0.016 0.223 0.030 0.447 0.042 0.672zM125.097 170.292c-0.012-0.225-0.026-0.449-0.042-0.673-1.063-0.008-2.127-0.016-3.191-0.023 0.015 0.231 0.022 0.464 0.023 0.696 1.069 0 2.139 0 3.21 0zM130.764 169.646c-0.025 0.215-0.041 0.431-0.048 0.646 0.803 0 1.605 0 2.408 0 0.003-0.221 0.013-0.44 0.029-0.66-0.796 0.005-1.592 0.010-2.389 0.014zM434.975 135.771c-0.218-0.018-0.437-0.026-0.655-0.025-0.133 0.759-0.265 1.519-0.398 2.277 0.352 0.052 0.702 0.104 1.054 0.157-0.001-0.803-0.001-1.606-0.001-2.409zM417 480h-322c-52.467 0-95-42.533-95-95v-322c0-52.467 42.533-95 95-95h322c52.467 0 95 42.533 95 95v322c0 52.467-42.533 95-95 95zM139.974 137.107c0-6.050 0-11.343 0-17.164-5.39 0-10.652 0-16.53 0 0-18.18 0-35.851 0-53.775-8.174 0-15.728 0-23.873 0 0 17.725 0 35.401 0 53.636-4.944 0-9.313 0-13.682 0 0 5.401 0 10.803 0 16.528 4.729 0.358 9.141 0.693 13.553 1.027 0.274 3.274 0.43 6.564 0.845 9.821 1.396 10.97 5.084 19.933 21.576 22.415 1.064 0.008 2.128 0.016 3.191 0.023 1.903 0.009 3.806 0.018 5.71 0.026 0.796-0.004 1.593-0.009 2.389-0.014 2.238-0.337 4.477-0.674 7.36-1.107-0.421-5.509-0.831-10.877-1.253-16.407-4.847-0.026-10.342 2.543-13.345-2.098-2.133-3.296-2.279-7.88-3.576-12.912 6.708 0.001 12.075 0.001 17.635 0.001zM175.98 66.209c-7.677 0-15.224 0-23.147 0 0 33.678 0 67.391 0 101.712 7.743 0 15.284 0 23.147 0 0-33.958 0-67.681 0-101.712zM196.742 166.177c7.68 0 15.197 0 23.122 0 0-5.664 0-11.302 0-17.259-7.563 0-15.094 0-23.122 0 0 5.793 0 11.343 0 17.259zM219.995 66.184c-7.753 0-15.297 0-23.153 0 0 23.415 0 46.749 0 70.588 7.784 0 15.334 0 23.153 0 0-23.625 0-46.964 0-70.588zM293.183 67.671c-15.212-6.168-39.877-4.819-52.011 11.678-11.736 15.953-10.125 49.267 19.994 57.375 8.966 2.413 17.938 2.542 26.896-0.057 1.021-0.296 2.021-0.687 3.003-1.103 0.599-0.252 1.142-0.636 2.077-1.169-0.522-5.599-1.047-11.24-1.604-17.22-10.923 4.27-21.175 6.327-29.086-4.202-4.756-6.328-4.488-16.492-0.068-22.679 5.794-8.108 15.117-9.769 30.801-5.091-0.002-6.091-0.002-11.766-0.002-17.532zM346.433 66.244c-5.902 10.918-12.012 22.222-18.121 33.526-0.292-0.084-0.583-0.167-0.876-0.251 0-11.003 0-22.006 0-33.31-7.958 0-15.507 0-23.461 0 0 33.812 0 67.639 0 101.725 7.78 0 15.325 0 23.317 0 0-19.976 0-39.68 0-59.384 0.336-0.128 0.671-0.257 1.008-0.386 6.282 9.477 12.566 18.954 18.968 28.609 8.354 0 16.685 0 25.876 0-8.080-11.090-15.741-21.604-23.609-32.404 8.437-12.591 16.808-25.084 25.546-38.126-9.799 0.001-18.917 0.001-28.648 0.001zM433.094 118.082c-3.229 0-6.021 0.12-8.801-0.023-6.983-0.36-12.134-3.754-14.237-10.405-1.387-4.385-1.992-9.142-2.157-13.76-0.323-9.068-0.095-18.155-0.095-27.61-7.901 0-15.412 0-23.247 0 0 23.489 0 46.814 0 70.474 6.953 0 13.703 0 21.012 0 0.17-3.751 0.333-7.393 0.53-11.749 0.823 0.955 1.317 1.351 1.584 1.864 4.712 9.077 12.25 12.627 22.237 11.461 1.328-0.155 2.668-0.209 4.001-0.31 0.134-0.759 0.266-1.519 0.398-2.277-0.413-5.962-0.827-11.924-1.225-17.665zM260.165 296.92c0-51.791-41.986-93.777-93.777-93.777s-93.777 41.986-93.777 93.777c0 51.791 41.986 93.777 93.777 93.777s93.777-41.986 93.777-93.777zM449.235 296.92c0-51.791-41.986-93.777-93.777-93.777s-93.777 41.986-93.777 93.777c0 51.791 41.986 93.777 93.777 93.777s93.777-41.986 93.777-93.777z" />
<glyph unicode="&#xe621;" d="M267.8 186.784c-6.248-6.248-16.376-6.248-22.624 0l-12.64 12.64-48.656-47.424h144.816l-48.64 47.032-12.256-12.248zM353.648 296h-194.52l96.872-96 97.648 96zM144 287.952v-135.952h16.488l60.224 59.24-76.712 76.712zM352.488 152h15.512v134.976l-75.744-75.736 60.232-59.24zM256 480c-141.384 0-256-114.616-256-256s114.616-256 256-256 256 114.616 256 256-114.616 256-256 256zM384 152c0-8.832-7.168-16-16-16h-224c-8.832 0-16 7.168-16 16v144c0 8.832 7.168 16 16 16h224c8.832 0 16-7.168 16-16v-144z" />
<glyph unicode="&#xe622;" d="M83.739 138.634c4.865-0.006 9.729-0.013 14.594-0.019-4.444-0.337-8.889-0.674-13.654-1.035 0-5.769 0-11.211 0-16.652-0.313-0.029-0.626-0.059-0.939-0.088-0.001 5.931-0.001 11.862-0.001 17.794zM124.181 171.796c1.887 0 3.774 0 5.662 0 0.002-0.225 0.016-0.447 0.042-0.67-1.917-0.005-3.832-0.009-5.748-0.014 0.018 0.228 0.032 0.455 0.044 0.684zM124.181 171.796c-0.011-0.229-0.026-0.456-0.045-0.684-1.071-0.006-2.143-0.012-3.213-0.018 0.015 0.233 0.022 0.467 0.023 0.701 1.078 0.001 2.156 0.001 3.235 0.001zM129.884 171.126c-0.026 0.223-0.040 0.445-0.042 0.67 0.809 0 1.618 0 2.426 0 0.001-0.227 0.012-0.451 0.034-0.677-0.806 0.003-1.612 0.005-2.418 0.007zM256 480c-141.384 0-256-114.616-256-256s114.616-256 256-256c141.387 0 256 114.615 256 256s-114.613 256-256 256zM196.51 167.8c7.771 0 15.258 0 23.151 0 0-5.853 0-11.532 0-17.537-7.617 0-15.203 0-23.151 0 0 5.633 0 11.32 0 17.537zM139.015 138.488c0-6.041 0-11.462 0-17.421-5.276 0-10.578 0-16.604 0 0-9.47 0-18.422 0-27.374 0-8.848 0-17.695 0-26.805-8.131 0-15.741 0-23.948 0 0 17.858 0 35.667 0 54.039-4.983 0-9.384 0-13.785 0 0 5.441 0 10.884 0 16.652 4.765 0.361 9.21 0.698 13.654 1.035 0.277 3.299 0.434 6.613 0.851 9.895 1.407 11.048 5.119 20.083 21.739 22.585 1.071 0.006 2.142 0.012 3.213 0.018 1.916 0.005 3.832 0.009 5.748 0.014 0.806-0.002 1.612-0.004 2.418-0.007 2.255-0.334 4.511-0.669 7.411-1.1-0.425-5.562-0.838-10.972-1.263-16.537-4.889-0.022-10.423 2.563-13.449-2.113-2.147-3.319-2.29-7.934-3.562-12.881 6.622 0 11.915 0 17.577 0zM175.454 66.921c-7.759 0-15.364 0-23.337 0 0 33.954 0 67.922 0 102.494 7.826 0 15.422 0 23.337 0 0-34.242 0-68.218 0-102.494zM219.756 66.788c-7.879 0-15.393 0-23.256 0 0 23.74 0 47.35 0 71.24 7.726 0 15.334 0 23.256 0 0-23.734 0-47.245 0-71.24zM293.51 68.408c-15.089-6.205-40.084-4.911-52.354 11.72-11.833 16.039-10.269 49.634 20.070 57.835 9.032 2.442 18.076 2.59 27.094-0.047 1.647-0.48 3.209-1.256 5.179-2.043-0.536-5.845-1.059-11.53-1.613-17.579-10.975 4.252-21.313 6.379-29.291-4.207-4.891-6.488-4.548-16.955 0.106-23.182 5.965-7.98 15.392-9.578 30.81-4.812-0.001-6.131-0.001-11.85-0.001-17.685zM347.193 66.936c-5.954 11.021-12.080 22.361-18.206 33.701-0.27-0.030-0.538-0.061-0.808-0.091 0-11.118 0-22.236 0-33.633-8.202 0-15.812 0-23.805 0 0 33.999 0 67.981 0 102.376 7.751 0 15.429 0 23.571 0 0-20.041 0-39.887 0-59.731 0.321-0.114 0.642-0.229 0.964-0.344 6.345 9.56 12.688 19.12 19.113 28.8 8.466 0 16.856 0 26.088 0-8.165-11.184-15.903-21.781-23.819-32.623 8.66-12.922 17.030-25.413 25.771-38.455-9.924 0-19.124 0-28.869 0zM434.588 119.202c-3.152 0-5.932 0.097-8.702-0.019-7.205-0.3-12.453-3.754-14.659-10.614-1.336-4.157-1.938-8.671-2.119-13.055-0.329-7.933-0.096-15.888-0.098-23.834 0-1.452 0-2.905 0-4.706-7.918 0-15.382 0-23.296 0 0 23.543 0 47.121 0 71.037 6.883 0 13.679 0 21.097 0 0-3.781 0-7.45 0-10.854 4.202 3.779 7.792 7.949 12.241 10.755 4.839 3.052 10.583 2.14 16.647 0.983-0.379-6.713-0.746-13.214-1.111-19.693zM259.923 296.92c0-51.791-41.986-93.777-93.777-93.777s-93.777 41.986-93.777 93.777c0 51.791 41.986 93.777 93.777 93.777s93.777-41.986 93.777-93.777zM448.993 296.92c0-51.791-41.986-93.777-93.777-93.777s-93.777 41.986-93.777 93.777c0 51.791 41.986 93.777 93.777 93.777s93.777-41.986 93.777-93.777z" />
<glyph unicode="&#xe623;" d="M256 480c-141.385 0-256-114.615-256-256s114.615-256 256-256 256 114.615 256 256-114.615 256-256 256zM379.804 233.704c-9.972-13.078-21.793-24.256-35.249-33.71-1.344-0.944-2.641-1.956-4.224-3.135 0-38.601 0-77.219 0-115.458-9.044-8.42-35.648-15.38-44.061-11.467 0 34.887 0 69.989 0 105.894-28.355-8.978-56.916-12.194-86.186-11.749 0-25.208 0-49.987 0-74.406-6.376-8.143-33.244-15.943-44.173-12.802 0 30.096 0 60.35 0 90.804-10.697 2.049-20.898 4.235-31.186 5.885-6.015 0.965-10.317 3.247-11.67 9.633-1.886 8.902 0.080 17.577 5.197 21.771 12.127-2.097 24.362-4.212 37.245-6.438 0 46.593 0 92.479 0 137.776 8.203 8.741 36.334 16.202 44.371 11.892 0-50.56 0-101.333 0-152.628 29.683-0.368 58.271 3.328 86.261 13.338 0 2.337 0 4.477 0 6.614-0.004 50.825 0.070 101.648-0.134 152.472-0.020 4.921 1.437 8.354 5.845 9.722 10.574 3.282 21.264 6.207 31.981 8.991 1.87 0.485 4.102-0.422 6.635-0.745 0-51.602 0-102.654 0-155.441 10.802 8.739 20.425 16.525 30.187 24.422 8.189-1.031 14.261-14.544 9.161-21.235z" />
<glyph unicode="&#xe624;" d="M417 480h-322c-52.467 0-95-42.533-95-95v-322c0-52.467 42.533-95 95-95h322c52.467 0 95 42.533 95 95v322c0 52.467-42.533 95-95 95zM377.962 235.792c-10.125-12.959-21.834-24.222-35.262-33.708-1.346-0.95-2.667-1.934-4.289-3.113 0-38.556 0-77.169 0-116.456-13.497-8.024-27.736-12.461-44.054-12.026 0 36.17 0 71.262 0 107.346-28.382-8.928-56.89-12.228-86.262-11.73 0-25.221 0-50.137 0-74.564-6.922-8.099-32.62-15.541-44.062-12.834 0 30.093 0 60.329 0 91.029-7.885 1.454-15.333 2.81-22.772 4.21-3.262 0.614-6.507 1.315-9.758 1.991-7.604 1.581-9.085 3.125-10.596 11.021 0.012 3.371 0.024 6.742 0.036 10.114 1.29 3.418 2.58 6.836 3.824 10.133 13.655-2.342 26.014-4.462 38.871-6.667 0 46.703 0 92.483 0 137.852 7.668 8.479 35.89 16.082 44.174 11.909 0-50.573 0-101.346 0-152.71 29.668-0.424 58.231 3.309 86.141 13.252 0 54.784 0 109.39 0 163.577 6.178 8.45 34.648 16.745 44.406 12.904 0-50.847 0-101.907 0-152.966 0.41-0.295 0.819-0.589 1.229-0.884 9.604 7.751 19.207 15.501 29.324 23.667 4.965-0.296 7.020-4.633 9.043-8.755 2.013-4.104 3.396-8.254 0.007-12.592z" />
<glyph unicode="&#xe625;" d="M256 480c-141.376 0-256-114.624-256-256s114.624-256 256-256 256 114.624 256 256c0 141.408-114.624 256-256 256zM273.664 183.36l-40.48 72.96c17.536 3.008 32.704 3.776 45.888 3.008l22.944-36.704 55.072 13.344c-21.632 21.184-61.152 41.088-133.408 28.224l-4.736-0.864 44.672-82.688-160.864-44.192c-3.488 5.376-6.304 11.136-8.384 17.184-10.4 30.112-1.856 61.024 19.776 85.568 13.088 14.688 31.264 26.912 53.376 35.456l-13.536 28.352c12.032 3.84 25.056 6.72 38.88 8.576l14.208-26.336 4.64 0.736c42.784 6.464 84.576 6.848 123.136-2.208 39.328-7.744 75.392-24.928 92.064-44.224 3.328-3.872 5.92-7.904 7.616-12.032l-160.864-44.16zM148.736 185.536l55.040 13.344-24.608 51.456c-31.424-16.832-35.392-42.144-30.432-64.8z" />
<glyph unicode="&#xe626;" d="M416 480h-320c-53.024 0-96-42.976-96-96v-320c0-53.024 42.976-96 96-96h320c53.024 0 96 42.976 96 96v320c0 53.024-42.976 96-96 96zM273.664 183.36l-40.48 72.96c17.536 3.008 32.704 3.776 45.888 3.008l22.944-36.704 55.072 13.344c-21.632 21.184-61.152 41.088-133.408 28.224l-4.736-0.864 44.672-82.688-160.864-44.192c-3.488 5.376-6.304 11.136-8.384 17.184-10.4 30.112-1.856 61.024 19.776 85.568 13.088 14.688 31.264 26.912 53.376 35.456l-13.536 28.352c12.032 3.84 25.056 6.72 38.88 8.576l14.208-26.336 4.64 0.736c42.784 6.464 84.576 6.848 123.136-2.208 39.328-7.744 75.392-24.928 92.064-44.224 3.328-3.872 5.92-7.904 7.616-12.032l-160.864-44.16zM148.736 185.536l55.040 13.344-24.608 51.456c-31.424-16.832-35.392-42.144-30.432-64.8z" />
<glyph unicode="&#xe627;" d="M416 480h-320c-53.024 0-96-42.976-96-96v-320c0-53.024 42.976-96 96-96h320c53.024 0 96 42.976 96 96v320c0 53.024-42.976 96-96 96zM351.968 243.2h-76.768v-70.272c0-17.824-0.256-28.064 1.632-33.12 1.92-5.024 6.56-10.24 11.68-13.248 6.816-4.096 14.56-6.112 23.328-6.112 15.552 0 24.736 2.048 40.128 12.192v-46.24c-13.12-6.176-24.576-9.792-35.2-12.288-10.656-2.464-22.144-3.712-34.528-3.712-14.048 0-22.336 1.76-33.12 5.312-10.784 3.52-20 8.64-27.616 15.168-7.648 6.56-12.896 13.568-15.872 20.96-2.944 7.392-4.416 18.080-4.416 32.16v107.712h-41.184v43.52c12.064 3.904 25.568 9.536 34.144 16.864 8.608 7.328 15.52 16.096 20.736 26.368 5.184 10.208 8.768 23.296 10.752 39.136h49.536v-76.8h76.768v-57.6z" />
<glyph unicode="&#xe628;" d="M256 480c-141.376 0-256-114.624-256-256s114.624-256 256-256 256 114.624 256 256c0 141.408-114.624 256-256 256zM351.968 243.2h-76.768v-70.272c0-17.824-0.256-28.064 1.632-33.12 1.92-5.024 6.56-10.24 11.68-13.248 6.816-4.096 14.56-6.112 23.328-6.112 15.552 0 24.736 2.048 40.128 12.192v-46.24c-13.12-6.176-24.576-9.792-35.2-12.288-10.656-2.464-22.144-3.712-34.528-3.712-14.048 0-22.336 1.76-33.12 5.312-10.784 3.52-20 8.64-27.616 15.168-7.648 6.56-12.896 13.568-15.872 20.96-2.944 7.392-4.416 18.080-4.416 32.16v107.712h-41.184v43.52c12.064 3.904 25.568 9.536 34.144 16.864 8.608 7.328 15.52 16.096 20.736 26.368 5.184 10.208 8.768 23.296 10.752 39.136h49.536v-76.8h76.768v-57.6z" />
<glyph unicode="&#xe629;" d="M256 480c-141.385 0-256-114.615-256-256s114.615-256 256-256 256 114.615 256 256-114.615 256-256 256zM406.31 122.417c-17.976 0.215-33.32 7.181-47.316 17.8-9.147 6.938-16.982 15.26-24.521 23.854-1.266 1.438-1.854 1.761-3.39 0.164-7.708-8-15.028-16.399-23.68-23.444-10.941-8.907-23.021-15.601-37.161-17.522-25.011-3.396-46.613 3.192-63.406 22.818-3.806 4.449-6.676 9.521-9.030 14.883-0.299 0.676-0.389 1.488-1.15 2.055-3.295-7.105-7.374-13.649-12.731-19.342-13.478-14.33-30.104-21.808-49.726-22.5-14.18-0.502-28.068 1.309-41.005 7.439-21.671 10.27-33.585 27.361-35.066 51.508-0.107 1.835 0.4 2.301 2.218 2.293 11.655-0.087 23.309-0.087 34.963 0 1.749 0.008 2.235-0.504 2.532-2.215 2.244-13.3 9.396-22.562 22.798-25.887 18.698-4.644 35.879 5.973 40.786 25.219 3.308 12.953 1.88 25.342-6.705 36.13-5.704 7.164-13.448 10.651-22.542 11.292-13.082 0.924-23.779-3.391-31.507-14.252-0.718-1.016-1.559-1.262-2.718-1.262-10.508 0.033-21.011 0.058-31.511-0.021-1.831-0.012-2.202 0.5-1.889 2.236 5.452 30.302 10.854 60.617 16.265 90.929 0.742 4.145 1.497 8.292 2.182 12.446 0.218 1.364 0.743 1.868 2.214 1.864 34.886-0.046 69.767-0.046 104.646 0 1.67 0.004 2.024-0.54 2.017-2.099-0.074-9.349-0.091-18.707 0.013-28.056 0.018-1.904-0.47-2.429-2.404-2.42-24.99 0.066-49.982 0.021-74.973 0.086-2.074 0.009-2.998-0.338-3.387-2.668-2.198-13.299-4.631-26.562-6.957-39.837-0.1-0.565-0.495-1.328 0.115-1.698 0.676-0.414 1.056 0.408 1.455 0.795 11.453 11.028 25.425 14.393 40.828 13.572 14.816-0.787 27.469-6.355 37.902-16.892 4.364-4.396 7.746-9.484 10.479-15.023 0.3-0.595 0.605-1.198 1.134-2.254 2.952 7.778 6.59 14.558 11.753 20.435 11.333 12.878 25.643 19.824 42.658 21.391 23.978 2.214 43.682-7.044 60.932-22.785 7.147-6.521 13.474-13.832 19.688-21.23 1.323-1.579 1.9-1.72 3.308-0.055 7.996 9.502 15.964 19.046 25.812 26.766 11.35 8.899 23.856 15.328 38.367 17.027 35.862 4.202 65.827-15.328 73.46-52.347 3.214-15.566 2.224-30.961-3.171-45.969-9.974-27.734-33.067-43.569-62.579-43.224zM402.481 225.73c-9.241-1.221-16.862-5.789-24.042-11.291-8-6.146-14.716-13.639-21.626-20.918-0.93-0.977-0.517-1.49 0.165-2.25 4.856-5.438 9.871-10.728 15.562-15.31 9.444-7.595 19.671-13.452 32.125-14.604 14.029-1.305 25.396 5.261 30.415 17.979 1.74 4.4 2.467 8.995 2.492 14.369 0.053 1.345-0.169 3.322-0.417 5.295-2.214 17.646-17.072 29.059-34.674 26.73zM285.383 214.882c-5.983 4.31-12.276 8.157-19.522 9.951-11.022 2.726-21.068 1.159-28.908-7.819-6.083-6.962-8.987-15.209-8.972-25.020 0.065-0.887 0.142-2.348 0.272-3.79 1.188-13.659 10.31-23.933 23.532-26.345 7.268-1.332 14.335-0.363 21.188 2.302 14.631 5.702 25.778 15.95 35.974 27.474 0.746 0.842 0.38 1.258-0.207 1.872-7.296 7.654-14.738 15.16-23.357 21.375z" />
<glyph unicode="&#xe62a;" d="M285.383 214.882c-5.983 4.31-12.276 8.157-19.522 9.951-11.022 2.726-21.068 1.159-28.908-7.819-6.083-6.962-8.987-15.209-8.971-25.020 0.065-0.887 0.141-2.348 0.272-3.79 1.188-13.659 10.31-23.933 23.532-26.345 7.268-1.332 14.335-0.363 21.188 2.302 14.631 5.702 25.778 15.95 35.974 27.474 0.746 0.842 0.38 1.258-0.207 1.872-7.297 7.654-14.739 15.16-23.358 21.375zM402.481 225.731c-9.241-1.221-16.862-5.79-24.042-11.292-8-6.146-14.716-13.639-21.626-20.918-0.93-0.977-0.517-1.49 0.165-2.25 4.856-5.438 9.871-10.728 15.562-15.31 9.444-7.595 19.671-13.452 32.125-14.604 14.029-1.305 25.396 5.261 30.415 17.979 1.74 4.4 2.467 8.995 2.492 14.369 0.053 1.345-0.169 3.322-0.417 5.295-2.214 17.646-17.072 29.058-34.674 26.731zM417 480h-322c-52.467 0-95-42.533-95-95v-322c0-52.467 42.533-95 95-95h322c52.467 0 95 42.533 95 95v322c0 52.467-42.533 95-95 95zM468.887 165.641c-9.972-27.733-33.064-43.568-62.577-43.224-17.976 0.215-33.32 7.181-47.316 17.8-9.147 6.938-16.982 15.26-24.521 23.854-1.266 1.438-1.854 1.761-3.39 0.164-7.708-8-15.028-16.399-23.68-23.444-10.941-8.907-23.021-15.601-37.161-17.522-25.011-3.396-46.613 3.192-63.406 22.818-3.806 4.449-6.676 9.521-9.031 14.883-0.298 0.676-0.388 1.488-1.15 2.055-3.295-7.105-7.374-13.649-12.731-19.342-13.477-14.33-30.104-21.808-49.726-22.5-14.179-0.502-28.068 1.309-41.005 7.439-21.671 10.27-33.585 27.361-35.066 51.508-0.107 1.835 0.4 2.301 2.218 2.293 11.655-0.087 23.309-0.087 34.963 0 1.749 0.008 2.235-0.504 2.532-2.215 2.244-13.3 9.395-22.562 22.797-25.887 18.699-4.644 35.879 5.973 40.787 25.219 3.307 12.953 1.88 25.342-6.705 36.13-5.705 7.164-13.449 10.652-22.542 11.292-13.082 0.924-23.779-3.39-31.507-14.252-0.718-1.016-1.559-1.262-2.718-1.262-10.508 0.033-21.011 0.058-31.511-0.021-1.831-0.012-2.202 0.5-1.889 2.236 5.452 30.302 10.854 60.617 16.265 90.929 0.742 4.145 1.497 8.292 2.182 12.446 0.218 1.364 0.743 1.868 2.214 1.864 34.885-0.046 69.766-0.046 104.645 0 1.671 0.004 2.025-0.54 2.017-2.099-0.074-9.349-0.091-18.707 0.013-28.056 0.017-1.904-0.47-2.429-2.405-2.42-24.99 0.066-49.982 0.021-74.972 0.086-2.075 0.009-2.999-0.338-3.387-2.668-2.198-13.299-4.631-26.562-6.957-39.837-0.099-0.565-0.495-1.328 0.115-1.698 0.676-0.414 1.056 0.408 1.456 0.795 11.452 11.028 25.424 14.393 40.827 13.572 14.817-0.787 27.469-6.355 37.903-16.892 4.364-4.396 7.746-9.484 10.479-15.023 0.299-0.595 0.605-1.198 1.133-2.254 2.952 7.778 6.59 14.558 11.753 20.435 11.333 12.878 25.643 19.824 42.658 21.391 23.978 2.214 43.682-7.044 60.932-22.785 7.147-6.521 13.474-13.832 19.688-21.23 1.323-1.579 1.9-1.72 3.308-0.055 7.996 9.502 15.964 19.046 25.812 26.766 11.35 8.899 23.856 15.328 38.367 17.027 35.862 4.202 65.827-15.328 73.46-52.347 3.213-15.567 2.223-30.962-3.171-45.969z" />
<glyph unicode="&#xe62b;" d="M283.82 293.58c-8.105 8.101-15.934 15.926-24.658 24.646-4.21-4.239-7.195-7.243-10.179-10.245-24.398-24.539-48.788-49.083-73.201-73.607-5.166-5.188-10.537-10.174-15.598-15.459-4.184-4.371-4.018-6.686 0.148-11.006 2.653-2.75 5.421-5.396 7.994-8.221 6.098-6.693 17.056-6.992 23.406-0.562 28.631 28.997 57.276 57.979 85.878 87.005 1.949 1.977 3.578 4.27 6.21 7.449zM253.447 233.446c-17.978-18.217-35.989-36.401-53.923-54.661-1.453-1.477-2.408-3.441-3.521-5.070 0.522-1.188 0.683-2.092 1.21-2.658 3.268-3.51 6.732-6.844 9.918-10.426 6.402-7.203 17.355-7.734 24.067-0.977 15.7 15.807 31.397 31.617 47.036 47.482 1.719 1.744 3.064 3.857 5.607 7.111-7.645 7.467-14.732 14.803-22.311 21.593-3.020 2.707-5.787-0.066-8.083-2.394zM264.234 154.42c-1.479 1.432-3.525 2.275-5.406 3.449-8.402-7.832-16.435-15.318-25.265-23.549 4.826-5.064 8.345-8.742 11.846-12.436 8.277-8.732 18.812-8.768 27.041-0.131 2.18 2.287 4.543 4.396 6.725 6.68 3.693 3.863 3.971 6.6 0.479 10.375-4.965 5.368-10.162 10.53-15.42 15.612zM256 480c-141.385 0-256-114.615-256-256s114.615-256 256-256 256 114.615 256 256-114.615 256-256 256zM417.664 187.629c-10.822-11.746-22.369-22.82-33.555-34.234-18.633-19.016-37.309-37.988-55.811-57.133-9.213-9.531-20.334-13.939-33.441-13.92-23.65 0.039-47.301 0.098-70.951-0.012-14.447-0.068-25.907 5.273-36.070 15.865-26.375 27.488-53.477 54.281-80.346 81.295-7.461 7.502-14.199 15.391-16.545 26.102-0.016 0.992-0.033 1.984-0.050 2.977-0.007 3.383-0.015 6.766-0.022 10.148 0.055 1.303 0.109 2.607 0.164 3.91 2.818 10.168 9.76 17.494 16.928 24.693 32.494 32.634 64.986 65.271 97.422 97.963 8.775 8.844 17.271 17.964 26.047 26.806 5.965 6.009 13.137 9.994 21.539 11.577 4.029 0.015 8.056 0.028 12.085 0.042 11.139-1.826 18.969-8.91 26.506-16.543 34.738-35.169 69.529-70.286 104.262-105.46 7.367-7.458 14.746-14.916 21.805-22.66 13.84-15.186 14.021-36.233 0.033-51.416z" />
<glyph unicode="&#xe62c;" d="M264.234 154.42c-1.479 1.432-3.525 2.275-5.406 3.449-8.402-7.832-16.436-15.318-25.266-23.549 4.826-5.064 8.346-8.742 11.846-12.436 8.277-8.732 18.812-8.768 27.041-0.131 2.18 2.287 4.543 4.396 6.725 6.68 3.693 3.863 3.971 6.6 0.479 10.375-4.964 5.368-10.161 10.53-15.419 15.612zM283.82 293.58c-8.105 8.101-15.934 15.926-24.658 24.646-4.211-4.239-7.195-7.243-10.18-10.245-24.398-24.539-48.787-49.083-73.201-73.607-5.166-5.188-10.537-10.174-15.598-15.459-4.184-4.371-4.018-6.686 0.148-11.006 2.654-2.75 5.422-5.396 7.994-8.221 6.098-6.693 17.057-6.992 23.406-0.562 28.631 28.996 57.277 57.979 85.879 87.005 1.949 1.977 3.578 4.27 6.21 7.449zM253.447 233.445c-17.979-18.217-35.99-36.4-53.924-54.66-1.453-1.477-2.408-3.441-3.52-5.070 0.521-1.188 0.682-2.092 1.209-2.658 3.268-3.51 6.732-6.844 9.918-10.426 6.402-7.203 17.355-7.734 24.068-0.977 15.699 15.807 31.396 31.617 47.035 47.482 1.719 1.744 3.064 3.857 5.607 7.111-7.645 7.467-14.732 14.803-22.311 21.594-3.019 2.706-5.787-0.068-8.082-2.396zM417 480h-322c-52.467 0-95-42.533-95-95v-322c0-52.467 42.533-95 95-95h322c52.467 0 95 42.533 95 95v322c0 52.467-42.533 95-95 95zM417.664 187.629c-10.822-11.746-22.369-22.82-33.555-34.234-18.633-19.016-37.309-37.988-55.811-57.133-9.213-9.531-20.334-13.939-33.441-13.92-23.65 0.039-47.301 0.098-70.951-0.012-14.447-0.068-25.906 5.273-36.070 15.865-26.375 27.488-53.477 54.281-80.346 81.295-7.461 7.502-14.199 15.391-16.544 26.102-0.016 0.992-0.033 1.984-0.050 2.977-0.007 3.383-0.015 6.766-0.022 10.148 0.055 1.303 0.109 2.607 0.164 3.91 2.818 10.168 9.759 17.494 16.927 24.693 32.494 32.633 64.986 65.271 97.422 97.963 8.775 8.844 17.271 17.964 26.047 26.806 5.965 6.009 13.137 9.994 21.539 11.577 4.029 0.015 8.057 0.028 12.086 0.042 11.139-1.826 18.969-8.91 26.506-16.543 34.738-35.169 69.529-70.286 104.262-105.46 7.367-7.458 14.746-14.917 21.805-22.661 13.839-15.185 14.020-36.232 0.032-51.415z" />
<glyph unicode="&#xe62d;" d="M329.147 307.475c-13.11 32.975-39.814 51.351-73.943 50.88-34.316-0.473-61.027-19.661-72.923-53.047-9.647-27.076-9.919-54.587-0.496-81.682 10.361-29.792 30.979-48.209 63.068-51.496 34.585-3.544 66.786 10.869 82.799 45.766 1.256 2.738 2.367 5.506 3.345 8.302 4.234 12.113 5.96 24.737 6.132 37.685 0.027 13.42-2.071 26.588-6.125 38.544-0.579 1.709-1.198 3.392-1.857 5.048zM256 480c-141.385 0-256-114.615-256-256s114.615-256 256-256 256 114.615 256 256-114.615 256-256 256zM345.477 158.616c-0.043-9.616-1.248-19.438-3.482-28.791-6.064-25.388-22.098-42.188-47.050-49.657-25.058-7.501-50.358-7.68-75.144 1.351-26.269 9.568-41.455 31.807-41.073 59.413 2.686 0 5.063 0 7.655 0 0.662-4.41 1.026-8.77 1.997-12.988 4.756-20.658 17.896-33.775 37.736-39.98 23.14-7.236 46.537-6.829 69.352 1.183 25.52 8.96 38.609 28.583 40.747 54.634 1.759 21.426 0.925 43.063 1.216 64.607 0.060 4.301 0.009 8.604-0.706 13.008-0.844-2.511-1.598-5.058-2.548-7.528-7.748-20.139-22.391-33.583-41.699-42.223-19.938-8.922-40.699-10.731-61.833-5.309-25.58 6.565-43.4 22.771-53.44 46.797-14.447 34.573-14.276 69.642 0.937 103.892 26.38 59.389 102.824 62.748 138.581 24.973 9.564-10.104 16.189-21.789 20.572-35.124 0 18.125 0 36.25 0 54.616 2.905 0 5.272 0 8.122 0 0.071-1.403 0.208-2.845 0.208-4.288 0.009-66.196 0.146-132.392-0.148-198.586z" />
<glyph unicode="&#xe62e;" d="M417 480h-322c-52.467 0-95-42.533-95-95v-322c0-52.467 42.533-95 95-95h322c52.467 0 95 42.533 95 95v322c0 52.467-42.533 95-95 95zM345.371 160.616c-0.043-9.616-1.248-19.438-3.482-28.791-6.064-25.388-22.098-42.188-47.049-49.657-25.059-7.501-50.359-7.68-75.144 1.351-26.269 9.568-41.455 31.807-41.073 59.413 2.686 0 5.063 0 7.655 0 0.662-4.41 1.026-8.77 1.997-12.988 4.756-20.658 17.896-33.775 37.736-39.98 23.14-7.236 46.538-6.829 69.352 1.183 25.52 8.96 38.609 28.583 40.746 54.634 1.76 21.426 0.926 43.063 1.217 64.607 0.059 4.301 0.008 8.604-0.707 13.008-0.844-2.511-1.598-5.058-2.547-7.528-7.748-20.139-22.391-33.583-41.699-42.223-19.939-8.922-40.7-10.731-61.833-5.309-25.58 6.565-43.4 22.771-53.44 46.797-14.447 34.573-14.276 69.642 0.937 103.892 26.38 59.389 102.824 62.748 138.582 24.973 9.564-10.104 16.189-21.789 20.572-35.124 0 18.125 0 36.25 0 54.616 2.904 0 5.271 0 8.121 0 0.072-1.403 0.209-2.845 0.209-4.288 0.008-66.196 0.145-132.392-0.15-198.586zM329.043 309.475c-13.111 32.975-39.814 51.351-73.944 50.88-34.316-0.473-61.027-19.661-72.923-53.047-9.647-27.076-9.919-54.587-0.496-81.682 10.361-29.792 30.979-48.209 63.068-51.496 34.585-3.544 66.787 10.869 82.798 45.766 1.256 2.738 2.367 5.506 3.346 8.302 4.234 12.113 5.959 24.737 6.131 37.685 0.027 13.42-2.070 26.588-6.125 38.544-0.578 1.709-1.197 3.392-1.855 5.048z" />
<glyph unicode="&#xe62f;" d="M256 480c-141.385 0-256-114.615-256-256s114.615-256 256-256 256 114.615 256 256-114.615 256-256 256zM338.312 315.015c-1.841 7.57-7.273 12.854-15.71 13.375-8.741 0.539-14.568-4.085-18.219-11.593-5.175-10.642-5.2-22.070-3.998-33.436 2.987-28.274 15.763-49.812 43.486-60.167 14.677-5.482 29.835-5.035 44.998-1.955 0.589 0.119 1.177 0.246 2.255 0.472 0-12.47 0-24.283 0-37.205-12.182-1.433-24.348-2.864-36.401-4.281-6.622-11.228-12.95-22.899-20.163-33.997-16.040-24.673-34.643-47.27-56.876-66.676-19.172-16.734-30.97-16.905-50.786-0.732-20.787 16.964-36.166 38.361-49.209 61.528-22.911 40.692-36.937 84.625-46.399 130.096-3.845 18.476-6.552 37.189-9.758 55.798-0.103 0.595-0.013 1.223-0.013 2.039 17.239 0 34.345 0 52.079 0 0.893-6.422 1.758-13.006 2.73-19.574 6.857-46.292 17.99-91.331 39.281-133.368 10.592-20.914 23.516-40.287 38.86-58.664 21.836 22.117 38.931 47.175 52.754 74.48-0.312 0.437-0.432 0.783-0.671 0.916-32.773 18.17-48.858 47.295-54.112 83.244-2.818 19.282-1.757 38.393 5.834 56.659 12.269 29.518 39.962 45.802 71.854 42.518 10.104-1.041 19.908-3.075 28.896-8.066 18.124-10.063 26.746-26.449 30.314-46.042 4.46-24.493 0.718-48.106-8.152-71.1-0.281-0.73-0.756-1.386-1.095-1.996-19.594-3.78-36.164 1.648-43.761 13.717 1.702 10.206 4.173 19.765 4.643 29.421 0.395 8.158-0.725 16.623-2.661 24.589z" />
<glyph unicode="&#xe630;" d="M417 480h-322c-52.467 0-95-42.533-95-95v-322c0-52.467 42.533-95 95-95h322c52.467 0 95 42.533 95 95v322c0 52.467-42.533 95-95 95zM338.312 315.016c-1.841 7.569-7.273 12.854-15.71 13.374-8.741 0.539-14.568-4.085-18.219-11.593-5.175-10.643-5.2-22.070-3.998-33.437 2.987-28.274 15.763-49.812 43.486-60.167 14.677-5.481 29.835-5.034 44.998-1.954 0.589 0.119 1.177 0.246 2.255 0.472 0-12.47 0-24.283 0-37.205-12.182-1.433-24.348-2.864-36.401-4.281-6.622-11.228-12.95-22.899-20.163-33.997-16.040-24.673-34.643-47.27-56.876-66.676-19.172-16.734-30.97-16.905-50.786-0.732-20.786 16.964-36.165 38.361-49.21 61.528-22.91 40.692-36.937 84.625-46.398 130.096-3.846 18.477-6.553 37.189-9.759 55.798-0.103 0.595-0.013 1.223-0.013 2.039 17.238 0 34.344 0 52.078 0 0.893-6.422 1.758-13.006 2.73-19.574 6.857-46.292 17.99-91.331 39.281-133.368 10.592-20.914 23.516-40.287 38.86-58.664 21.836 22.117 38.931 47.175 52.754 74.48-0.312 0.437-0.432 0.783-0.671 0.916-32.773 18.17-48.858 47.295-54.111 83.244-2.818 19.282-1.758 38.393 5.834 56.659 12.269 29.518 39.962 45.802 71.854 42.518 10.104-1.041 19.908-3.075 28.896-8.066 18.124-10.063 26.746-26.449 30.314-46.041 4.46-24.494 0.718-48.107-8.152-71.1-0.281-0.73-0.756-1.387-1.095-1.996-19.594-3.78-36.164 1.648-43.761 13.717 1.702 10.206 4.173 19.766 4.643 29.422 0.396 8.156-0.724 16.621-2.66 24.588z" />
<glyph unicode="&#xe631;" d="M256 480c-141.385 0-256-114.615-256-256s114.615-256 256-256 256 114.615 256 256-114.615 256-256 256zM397.245 94.495c-16.982-0.151-33.979-0.372-50.943 0.206-3.673 0.124-8.122 2.684-10.677 5.511-6.616 7.318-12.539 15.292-18.424 23.237-4.706 6.353-8.933 13.059-13.416 19.578-0.707 1.026-1.607 1.933-2.488 2.824-6.675 6.751-11.913 5.79-15.771-3.009-4.173-9.515-4.664-19.708-5.251-29.874-0.181-3.128-0.201-6.307-0.811-9.359-1.22-6.111-5.232-9.188-11.488-9.154-9.178 0.052-18.464-0.69-27.511 0.448-17.628 2.218-32.364 11.062-45.569 22.568-17.373 15.136-29.299 34.333-39.935 54.396-23.53 44.384-41.041 91.246-56.681 138.861-0.503 1.532-0.696 3.181-0.911 4.792-1.012 7.588 1.91 11.072 10.266 11.393 14.321 0.549 28.67 0.443 43.008 0.438 5.887-0.002 10.447-4.184 12.686-11.089 2.243-6.918 4.326-13.89 6.681-20.769 7.291-21.299 15.807-42.091 26.638-61.854 2.452-4.475 5.53-8.708 8.885-12.56 4.081-4.684 8.537-3.859 10.58 1.952 1.567 4.455 2.696 9.201 3.119 13.899 1.938 21.583 2.213 43.177-0.851 64.707-1.389 9.764-6.292 16.502-16.346 18.741-0.332 0.074-0.604 0.414-1.363 0.959 1.851 6.495 5.732 11.167 11.9 13.233 4.696 1.574 9.74 2.644 14.676 2.854 10.046 0.43 20.124 0.14 30.188 0.116 1.376-0.003 2.774-0.056 4.126-0.293 13.98-2.453 17.587-5.886 18.872-20 0.726-7.979 0.197-16.077 0.155-24.121-0.098-18.99-0.505-37.983-0.186-56.964 0.082-4.819 1.916-9.817 3.867-14.335 1.712-3.966 5.017-4.42 7.8-1.097 4.326 5.165 8.538 10.593 11.777 16.473 13.686 24.834 23.551 51.25 31.421 78.442 0.487 1.682 1.001 3.373 1.704 4.971 1.718 3.898 4.324 5.807 9.049 5.731 18.363-0.292 36.733-0.115 55.103-0.121 6.156-0.002 8.983-2.81 9.086-8.916 0.141-8.386-2.81-16.027-5.849-23.596-9.053-22.554-21.471-43.391-33.118-64.625-3.795-6.918-7.312-14.018-10.481-21.242-2.971-6.775-2.287-13.65 1.932-19.753 5.354-7.746 11.026-15.274 16.669-22.817 11.302-15.108 22.484-30.296 29.138-48.188 1.071-2.878 1.649-6.086 1.727-9.159 0.18-7.287-5.649-13.368-12.983-13.435z" />
<glyph unicode="&#xe632;" d="M417 480h-322c-52.467 0-95-42.533-95-95v-322c0-52.467 42.533-95 95-95h322c52.467 0 95 42.533 95 95v322c0 52.467-42.533 95-95 95zM397.195 94.212c-16.982-0.151-33.979-0.372-50.943 0.206-3.673 0.124-8.122 2.684-10.677 5.511-6.616 7.318-12.539 15.292-18.424 23.237-4.706 6.353-8.933 13.059-13.416 19.578-0.707 1.026-1.607 1.933-2.488 2.824-6.675 6.751-11.913 5.79-15.771-3.009-4.173-9.515-4.664-19.708-5.251-29.874-0.181-3.128-0.201-6.307-0.811-9.359-1.22-6.111-5.232-9.188-11.488-9.154-9.178 0.052-18.465-0.69-27.511 0.448-17.628 2.218-32.364 11.062-45.569 22.568-17.373 15.136-29.299 34.333-39.935 54.396-23.53 44.384-41.041 91.246-56.681 138.861-0.503 1.532-0.695 3.181-0.91 4.792-1.012 7.588 1.91 11.072 10.266 11.393 14.32 0.549 28.67 0.443 43.008 0.438 5.887-0.002 10.446-4.184 12.686-11.089 2.242-6.918 4.326-13.89 6.68-20.769 7.291-21.299 15.808-42.091 26.639-61.854 2.451-4.475 5.529-8.708 8.885-12.56 4.081-4.684 8.537-3.859 10.58 1.952 1.566 4.455 2.696 9.201 3.119 13.899 1.938 21.582 2.213 43.176-0.852 64.706-1.389 9.764-6.291 16.502-16.346 18.741-0.332 0.074-0.604 0.414-1.363 0.959 1.852 6.495 5.732 11.167 11.9 13.233 4.696 1.574 9.74 2.644 14.676 2.854 10.047 0.43 20.123 0.14 30.188 0.116 1.376-0.003 2.774-0.056 4.126-0.293 13.98-2.453 17.587-5.886 18.872-20 0.726-7.979 0.197-16.077 0.155-24.121-0.098-18.99-0.505-37.983-0.186-56.964 0.082-4.819 1.916-9.817 3.867-14.335 1.712-3.966 5.017-4.42 7.8-1.097 4.326 5.165 8.538 10.593 11.777 16.474 13.686 24.834 23.551 51.25 31.421 78.441 0.487 1.682 1.001 3.373 1.704 4.971 1.718 3.898 4.324 5.807 9.049 5.731 18.363-0.292 36.733-0.115 55.103-0.121 6.156-0.002 8.983-2.81 9.086-8.916 0.141-8.386-2.81-16.027-5.849-23.596-9.053-22.554-21.471-43.39-33.118-64.625-3.795-6.918-7.312-14.018-10.481-21.242-2.971-6.775-2.287-13.65 1.932-19.753 5.354-7.746 11.026-15.274 16.669-22.817 11.302-15.108 22.484-30.296 29.138-48.188 1.071-2.878 1.649-6.086 1.727-9.159 0.18-7.287-5.649-13.368-12.983-13.434z" />
<glyph unicode="&#xe633;" d="M256 480c-48.743 0-94.302-13.626-133.082-37.272 17.098-0.918 34.095-3.767 50.622-8.564 21.53-6.234 42.291-15.825 61.104-28.79 18.817-12.915 35.577-29.387 48.727-48.5 0.84-1.181 1.629-2.398 2.422-3.611l1.188-1.821c0.033-0.034 0.631-0.988 0.734-1.161l2.383-3.869 2.178-3.705c1.535-2.582 2.756-4.907 4.109-7.348 1.266-2.448 2.578-4.873 3.768-7.359 2.469-4.928 4.676-9.978 6.812-15.052 2.076-5.098 4.023-10.246 5.771-15.459 0.764-2.281 1.492-4.574 2.189-6.874l-57.158-18.251c-0.601 2.011-1.234 4.013-1.902 6.003-1.324 3.953-2.807 7.852-4.374 11.717-1.626 3.839-3.283 7.67-5.16 11.398-0.895 1.885-1.901 3.715-2.851 5.573-1.002 1.792-2.031 3.758-2.982 5.337l-0.722 1.247-0.359 0.624c-0.11 0.196-0.241 0.419-0.414 0.694l-2.382 3.869c-0.21 0.346 0.064-0.098-0.24 0.373l-0.802 1.222c-0.532 0.816-1.055 1.638-1.626 2.429-8.846 12.837-20.182 24.079-33.367 33.127-26.315 18.197-59.648 27.623-92.322 27.078-16.341-0.245-32.542-2.93-47.628-8.074-5.527-1.854-10.874-4.090-16.049-6.6-13.258-19.376-23.923-40.664-31.492-63.37 4.227 5.737 11.035 14.158 18.229 19.708 11.801 9.104 42.147 28.66 76.876 28.66 1.694 0 3.288-0.147 4.792-0.419 5.887 0.365 11.901 0.312 18.009-0.231 8.705-0.774 17.609-2.52 26.416-5.516 8.784-3.036 17.38-7.545 25.132-13.504 3.891-2.954 7.551-6.279 10.976-9.853 3.427-3.571 6.617-7.401 9.53-11.428 1.45-2.018 2.87-4.062 4.184-6.167l0.501-0.786 0.656-1.054 0.688-1.157 0.73-1.226 0.968-1.671 0.947-1.664 0.824-1.521c0.559-1.012 1.093-2.032 1.611-3.058 0.531-1.023 1.043-2.052 1.532-3.089 0.503-1.034 0.991-2.073 1.454-3.119 3.752-8.327 6.71-16.913 8.94-25.673l-57.331-18.306c-1.503 6.857-3.613 13.366-6.285 19.27-0.271 0.62-0.556 1.225-0.85 1.822-0.282 0.607-0.577 1.2-0.883 1.782-0.296 0.591-0.6 1.173-0.917 1.739l-0.469 0.857-0.4 0.679-0.383 0.666c-0.038 0.073-0.206 0.34-0.312 0.507l-1.082 1.706c-0.183 0.297 0.204-0.343-0.067 0.079l-0.234 0.339c-0.621 0.909-1.29 1.767-1.975 2.6-2.767 3.319-5.967 6.034-9.351 8.45-3.381 2.425-6.951 4.613-10.771 6.687-3.821 2.065-7.982 3.835-12.397 5.033-3.122 0.867-6.35 1.477-9.623 1.86-22.406 1.642-53.606-4.119-60.87-46.46-8.031-46.811 20.791-70.501 48.74-73.958 2.421 0.021 4.725 0.146 6.89 0.35 8.793 0.832 15.447 2.87 19.764 4.611 2.165 0.871 3.775 1.642 4.842 2.179 1.063 0.56 1.603 0.844 1.603 0.844s-0.465-0.396-1.381-1.173c-0.879-0.71-2.191-1.756-3.986-2.98 2.589 1.209 4.992 2.67 7.149 4.381-14.836-25.627-85.307-47.543-121.047-0.338-6.359 8.4-10.932 17.41-14.176 26.543 1.092-23.678 5.404-46.511 12.501-68.082 0.354-0.346 0.696-0.704 1.060-1.039 8.622-8.006 19.935-13.373 32.741-16.043 12.797-2.658 26.846-2.578 40.562-0.26 13.734 2.315 27.183 6.828 39.32 13.006 3.035 1.545 5.99 3.192 8.844 4.94l2.123 1.328 1.843 1.202 2.484 1.697 1.412 1.023c4.081 3.105 7.833 6.914 11.148 11.367 6.636 8.908 11.473 20.223 14.194 32.18 1.709 7.447 2.639 15.133 2.838 22.773l58.66-19.068c-0.715-5.701-1.715-11.418-3.021-17.139-2.142-9.314-5.104-18.639-9.122-27.822-4.014-9.175-9.078-18.223-15.44-26.779-6.359-8.543-14.088-16.57-23.117-23.406l-1.717-1.256-0.861-0.625c-0.079-0.065-0.883-0.627-1.013-0.711l-2.621-1.793-3.341-2.19-3.139-1.966c-4.21-2.575-8.521-4.979-12.918-7.219-17.597-8.937-36.568-15.316-56.591-18.709-13.528-2.26-27.605-3.167-41.969-2.152 9.613-12.147 20.308-23.396 31.933-33.614 2.827 0.102 5.653 0.24 8.478 0.46 15.518 1.217 30.943 4.285 45.824 9.201 7.443 2.453 14.722 5.435 21.818 8.848l2.659 1.288 2.623 1.365c1.761 0.888 3.481 1.854 5.203 2.825 1.74 0.936 3.413 1.992 5.119 2.997 0.415 0.252 0.871 0.511 1.255 0.757l1.147 0.734 2.902 1.842 0.716 0.486 4.144 2.821c-0.089-0.057 0.371 0.27 0.406 0.298l0.601 0.435 1.202 0.867c0.807 0.574 1.606 1.157 2.386 1.766 3.179 2.359 6.229 4.896 9.255 7.466 5.974 5.229 11.689 10.812 16.948 16.851 21.175 24.022 35.999 54.409 42.352 86.893 0.416 2.117 0.795 4.244 1.141 6.378l57.576-18.716c-8.4-42.239-27.785-82.129-55.994-114.155-7.049-8.079-14.706-15.59-22.74-22.604-4.057-3.462-8.165-6.854-12.429-10.029-1.051-0.813-2.123-1.599-3.202-2.369l-3.584-2.57-5.018-3.415-0.861-0.559-3.534-2.268-1.77-1.127c-0.589-0.374-1.135-0.687-1.705-1.033-2.264-1.343-4.499-2.729-6.808-3.986-2.289-1.291-4.583-2.57-6.92-3.759l-3.491-1.812-3.532-1.717c-8.511-4.096-17.218-7.702-26.065-10.756 28.778-11.202 60.077-17.358 92.817-17.358 141.385 0 256 114.615 256 256s-114.615 256-256 256zM107.494 185.758c-24.336 0-44.065 19.729-44.065 44.065s19.729 44.065 44.065 44.065 44.065-19.729 44.065-44.065c0-24.337-19.728-44.065-44.065-44.065zM395.391 153.442l-236.781 76.968 237.369 75.793-31.729-48.766h31.729l0.586-59.341-29.377-1.174 28.203-43.48zM162.358-14.329c-0.191 0.074-0.38 0.152-0.571 0.227 0.191-0.076 0.38-0.152 0.571-0.227z" />
<glyph unicode="&#xe634;" d="M314.646 176.045c7.796 0.147 20.69 0.091 28.483 0.027l5.273 105.259 0.096 42.231-39.2 0.009 0.021-42.627 5.327-104.899zM329.121 157.674c-5.653 0-14.155-0.072-19.812 0.030v-37.528c11.188 0.093 27.933 0.087 39.11 0l-0.048 37.528c-5.397-0.102-13.854-0.030-19.25-0.030zM216.085 323.538c-11.043-0.132-27.38-0.102-38.429-0.015l-0.066-33.434 38.471-0.006 0.024 33.455zM256 480c-141.385 0-256-114.615-256-256s114.615-256 256-256 256 114.615 256 256-114.615 256-256 256zM414.094 69.917h-302.187v302.166h302.187v-302.166zM177.523 120.146h38.795l-0.107 125.046 19.677-0.295-0.136-89.458c0-4.54 0.276-9.054 0.85-13.549 1.63-12.934 7.146-19.604 19.148-21.979 13.216-2.613 28.305-1.278 41.574 0.145l0.060 26.731c-0.888-0.036-8.9-0.036-9.785 0-8.622 0.288-12.577 3.938-12.613 12.55l0.201 85.843 22.21-0.009 0.006 26.626-22.543 0.027 0.049 51.714-39.084 0.009-0.102-51.567-58.289-0.015 0.078-75.868 0.011-75.951z" />
<glyph unicode="&#xe635;" d="M256 480c-141.385 0-256-114.615-256-256s114.615-256 256-256 256 114.615 256 256-114.615 256-256 256zM387.227 301.747c-10.066 8.812-21.056 14.562-33.49 17.706-36.371 9.191-72.449-3.494-91.783-32.415-29.098-43.525-11.375-111.96 49.774-124.355 26.712-5.415 51.691-0.474 72.665 18.461 0.724 0.654 1.5 1.25 2.717 2.257 0-43.338 0-86.183 0-130.478-42.798 22.345-85.090 44.425-127.794 66.722-41.249-22.035-82.616-44.133-124.543-66.529 0 42.068 0 82.945 0 122.707 11.165-4.029 22.211-9.032 33.782-11.951 17.264-4.354 34.703-3.951 51.385 3.373 22.846 10.030 33.473 36.879 23.814 59.974-4.534 10.842-13.174 17.634-23.7 21.58-12.257 4.596-24.951 8.019-37.413 12.083-4.090 1.333-8.134 2.888-12.041 4.684-5.775 2.655-7.617 7.641-7.031 13.62 0.549 5.611 4.125 9.084 9.134 10.803 8.679 2.979 17.593 2.415 25.966-0.76 8.781-3.33 17.14-7.776 26.158-11.954 5.342 7.737 11.073 16.039 17.020 24.651-13.305 10.519-28.010 17.314-44.574 18.759-9.667 0.843-19.684 0.578-29.248-0.987-14.194-2.323-25.361-10.202-33.211-23.601 0 26.041 0 51.211 0 76.643 84.074 0 168.117 0 252.414 0-0.001-23.446-0.001-46.814-0.001-70.993zM387.048 293.64c0-33.482 0-66.244 0-99.704-5.521 5.672-10.706 11.001-16.327 16.777-14.311-13.799-30.473-21.458-50.37-17.604-10.536 2.041-18.999 7.59-25.691 15.973-15.275 19.136-14.085 50.517 2.646 68.104 18.244 19.178 42.592 18.030 72.197-3.605 5.649 6.46 11.324 12.947 17.545 20.059zM134.932 199.368c0 17.696 0 34.814 0 52.471 11.411-16.546 29.428-20.261 46.934-25.090 7.182-1.982 14.352-4.182 21.25-6.967 8.094-3.269 10.896-7.833 10.248-14.669-0.613-6.477-5.186-11.221-13.357-12.803-14.125-2.734-27.462 0.071-39.887 7.046-5.49 3.081-10.637 6.773-16.391 10.478-2.782-3.31-5.557-6.612-8.797-10.466z" />
<glyph unicode="&#xe636;" d="M417 482h-322c-52.467 0-95-42.533-95-95v-322c0-52.467 42.533-95 95-95h322c52.467 0 95 42.533 95 95v322c0 52.467-42.533 95-95 95zM387.227 301.747c-10.066 8.812-21.056 14.562-33.49 17.706-36.371 9.191-72.449-3.494-91.783-32.415-29.098-43.525-11.375-111.96 49.774-124.355 26.712-5.415 51.691-0.474 72.665 18.461 0.724 0.654 1.5 1.25 2.717 2.257 0-43.338 0-86.183 0-130.478-42.798 22.345-85.090 44.425-127.794 66.722-41.249-22.035-82.616-44.133-124.543-66.529 0 42.068 0 82.945 0 122.707 11.165-4.029 22.211-9.032 33.782-11.951 17.263-4.354 34.703-3.951 51.385 3.373 22.846 10.030 33.472 36.879 23.814 59.974-4.534 10.842-13.174 17.634-23.7 21.58-12.257 4.596-24.951 8.019-37.413 12.083-4.090 1.333-8.134 2.888-12.041 4.684-5.776 2.655-7.617 7.641-7.032 13.62 0.549 5.611 4.126 9.084 9.134 10.803 8.678 2.979 17.592 2.415 25.965-0.76 8.782-3.33 17.14-7.776 26.159-11.954 5.341 7.737 11.073 16.039 17.019 24.651-13.305 10.519-28.009 17.314-44.574 18.759-9.667 0.843-19.683 0.578-29.248-0.987-14.194-2.323-25.361-10.202-33.211-23.601 0 26.041 0 51.211 0 76.643 84.075 0 168.118 0 252.415 0 0-23.446 0-46.814 0-70.993zM387.048 293.64c0-33.482 0-66.244 0-99.704-5.521 5.672-10.706 11.001-16.327 16.777-14.311-13.799-30.473-21.458-50.37-17.604-10.536 2.041-18.999 7.59-25.691 15.973-15.275 19.136-14.085 50.517 2.646 68.104 18.244 19.178 42.592 18.030 72.197-3.605 5.649 6.46 11.324 12.947 17.545 20.059zM134.932 199.368c0 17.696 0 34.814 0 52.471 11.411-16.546 29.428-20.261 46.933-25.090 7.182-1.982 14.352-4.182 21.251-6.967 8.094-3.269 10.896-7.833 10.248-14.669-0.614-6.477-5.186-11.221-13.357-12.803-14.125-2.734-27.462 0.071-39.887 7.046-5.49 3.081-10.637 6.773-16.391 10.478-2.782-3.31-5.558-6.612-8.797-10.466z" />
<glyph unicode="&#xe637;" d="M347.871 350.698c-60.094 0.036-120.185 0.019-180.277 0-2.425-0.001-4.866-0.062-7.271-0.344-9.053-1.062-13.956-5.699-15.261-14.729-0.584-4.038-0.822-8.158-0.83-12.242-0.064-33.233-0.036-66.466-0.036-99.699 0-2.714 0-5.429 0-8.095 0.837-0.557 1.418-1.035 2.075-1.366 16.97-8.561 34.908-13.925 53.889-14.94 11.488-0.615 23.041-0.157 34.561 0.028 6.352 0.103 11.908-1.271 16.513-6.023 2.786-2.875 6.083-5.256 9.307-7.993 3 10.708 6.906 13.839 16.992 13.974 1.365 0.018 2.73-0.082 4.096-0.080 11.068 0.010 22.168-0.523 33.193 0.169 20.053 1.259 38.885 7.144 56.758 16.878 0 37.644 0.273 74.817-0.125 111.983-0.178 16.449-7.064 22.469-23.584 22.479zM253.275 244.182c-0.579-17.529-16.301-31.561-35.282-31.487-24.052 0.093-40.837 22.143-33.057 43.426 5.809 15.889 23.258 24.985 41.070 21.412 16.194-3.25 27.794-17.437 27.269-33.351zM303.992 212.858c-1.357-0.118-2.727-0.136-3.291-0.162-25.271-0.007-42.201 22.647-33.768 44.114 5.598 14.246 21.51 23.424 37.041 21.362 16.934-2.247 28.916-13.778 30.895-29.732 2.127-17.149-12.478-33.988-30.877-35.582zM257 480c-141.385 0-256-114.615-256-256s114.615-256 256-256 256 114.615 256 256-114.615 256-256 256zM399.393 220.199c-0.502-2.32-2.414-4.504-4.125-6.366-14.617-15.926-32.734-26.756-52.227-35.547-1.641-0.739-3.297-1.445-4.74-2.076 1.619-9.702 3.744-19.167 4.682-28.749 1.768-18.105-0.879-35.474-11.465-50.848-8.812-12.796-21.051-20.262-36.471-22.356-18.787-2.55-33.895 10.785-34.059 30.152-0.135 16.242-0.082 32.486-0.111 48.73-0.002 1.657 0 3.315 0 5.379-2.453 0.611-4.742 1.182-7.662 1.909 0-1.866 0.002-3.312 0-4.756-0.025-16.092-0.639-32.209 0.055-48.271 1.168-27.046-21.738-37.583-41.539-31.673-21.271 6.35-33.146 21.382-38.557 42.136-4.693 17.999-2.422 35.836 2.041 53.538 0.364 1.445 0.754 2.884 1.018 3.89-10.055 5.385-20.281 9.825-29.334 15.987-10.084 6.864-19.188 15.193-28.511 23.129-1.849 1.573-3.481 4.129-3.884 6.463-0.379 2.197 0.316 5.41 1.814 6.843 1.254 1.2 4.438 0.909 6.604 0.469 1.793-0.364 3.346-1.907 5.704-3.358 0 1.972 0 3.524 0 5.076 0 35.676-0.032 71.352 0.017 107.027 0.020 14.52 8.842 25.954 21.922 28.503 2.209 0.431 4.525 0.424 6.791 0.425 66.342 0.021 132.685-0.266 199.025 0.199 18.391 0.129 29.408-14.626 29.266-29.545-0.34-35.369-0.109-70.744-0.109-106.115 0-1.516 0-3.031 0-5.261 2.096 1.19 3.742 2.727 5.588 3.022 2.301 0.369 5.682 0.586 6.92-0.721 1.454-1.536 1.843-4.934 1.347-7.235z" />
<glyph unicode="&#xe638;" d="M347.871 349.393c-60.094 0.036-120.186 0.019-180.277 0-2.424-0.001-4.865-0.062-7.27-0.344-9.053-1.062-13.957-5.699-15.262-14.729-0.584-4.038-0.822-8.158-0.83-12.242-0.064-33.233-0.035-66.466-0.035-99.699 0-2.714 0-5.429 0-8.095 0.836-0.557 1.418-1.035 2.074-1.366 16.971-8.561 34.908-13.925 53.889-14.94 11.488-0.615 23.041-0.157 34.561 0.028 6.352 0.103 11.908-1.271 16.514-6.023 2.785-2.875 6.082-5.256 9.307-7.993 3 10.708 6.906 13.839 16.992 13.974 1.365 0.018 2.73-0.082 4.096-0.080 11.068 0.010 22.168-0.523 33.193 0.169 20.053 1.259 38.885 7.144 56.758 16.878 0 37.644 0.273 74.817-0.125 111.983-0.179 16.448-7.065 22.469-23.585 22.479zM253.275 242.876c-0.58-17.529-16.301-31.561-35.283-31.487-24.051 0.093-40.836 22.143-33.057 43.426 5.809 15.889 23.258 24.985 41.070 21.412 16.194-3.249 27.796-17.437 27.27-33.351zM303.992 211.553c-1.357-0.118-2.727-0.136-3.291-0.162-25.271-0.007-42.201 22.647-33.768 44.114 5.598 14.246 21.51 23.424 37.041 21.362 16.934-2.247 28.916-13.778 30.895-29.732 2.127-17.15-12.478-33.989-30.877-35.582zM417 480h-322c-52.467 0-95-42.533-95-95v-322c0-52.467 42.533-95 95-95h322c52.467 0 95 42.533 95 95v322c0 52.467-42.533 95-95 95zM399.393 218.894c-0.502-2.32-2.414-4.504-4.125-6.366-14.617-15.926-32.734-26.756-52.227-35.547-1.641-0.739-3.297-1.445-4.74-2.076 1.619-9.702 3.744-19.167 4.682-28.749 1.768-18.105-0.879-35.474-11.465-50.848-8.812-12.796-21.051-20.262-36.471-22.356-18.787-2.55-33.895 10.785-34.059 30.152-0.135 16.242-0.082 32.486-0.111 48.73-0.002 1.657 0 3.315 0 5.379-2.453 0.611-4.742 1.182-7.662 1.909 0-1.866 0.002-3.312 0-4.756-0.025-16.092-0.639-32.209 0.055-48.271 1.168-27.046-21.738-37.583-41.539-31.673-21.271 6.35-33.145 21.382-38.557 42.136-4.693 17.999-2.422 35.836 2.041 53.538 0.365 1.445 0.754 2.884 1.018 3.89-10.055 5.385-20.281 9.825-29.334 15.987-10.084 6.864-19.188 15.193-28.51 23.129-1.85 1.573-3.482 4.129-3.885 6.463-0.379 2.197 0.316 5.41 1.814 6.843 1.254 1.2 4.438 0.909 6.604 0.469 1.793-0.364 3.346-1.907 5.705-3.358 0 1.972 0 3.524 0 5.076 0 35.676-0.033 71.352 0.016 107.027 0.020 14.52 8.842 25.954 21.922 28.503 2.209 0.431 4.525 0.424 6.791 0.425 66.342 0.021 132.686-0.266 199.025 0.199 18.391 0.129 29.408-14.626 29.266-29.545-0.34-35.369-0.109-70.744-0.109-106.115 0-1.516 0-3.031 0-5.261 2.096 1.19 3.742 2.727 5.588 3.022 2.301 0.369 5.682 0.586 6.92-0.721 1.454-1.536 1.843-4.935 1.347-7.235z" />
<glyph unicode="&#xe639;" d="M512 63c0-52.467-42.533-95-95-95h-322c-52.467 0-95 42.533-95 95v322c0 52.467 42.533 95 95 95h322c52.467 0 95-42.533 95-95v-322zM257.041 432.144c-118.751 0.113-215.368-96.284-215.542-215.051-0.173-118.755 96.167-215.41 214.945-215.649 118.744-0.239 215.456 96.062 215.753 214.84 0.301 118.904-96.223 215.746-215.156 215.86zM423.094 114.48c-50.546-81.557-144.831-108.066-221.086-84.896 62.285 27.896 99.892 75.54 115.092 141.835-15.608 5.081-30.745 10.009-45.824 14.919-16.204-72.652-60.933-113.804-134.975-123.959-9.609 9.212-18.941 18.155-28.719 27.527 9.677 0.736 18.375 0.972 26.948 2.131 25.967 3.515 49.781 12.806 70.682 28.669 20.996 15.937 32.258 38.040 38.004 63.278 0.904 3.971 1.465 8.021 2.267 12.493-15.775 5.137-31.274 10.184-45.837 14.925-2.458-10.021-4.249-20.027-7.418-29.574-4.052-12.204-12.189-21.454-23.508-27.857-22.108-12.506-45.444-18.427-70.845-13.572-2.624 0.501-5.202 1.313-7.75 2.141-11.558 3.759-20.151 10.025-21.875 23.346-1.611 12.438-4.114 24.767-6.224 37.143-0.144 0.73-0.288 1.464-0.433 2.196 0.167 0.062 0.332 0.124 0.497 0.187 0.153-0.253 0.306-0.505 0.459-0.757 0.836-1.766 1.648-3.545 2.516-5.295 13.842-27.914 40.662-39.967 71.598-32.2 8.712 2.187 16.927 5.504 24.095 10.999 2.741 2.099 5.118 4.677 7.66 7.036-0.178 0.31-0.355 0.619-0.533 0.93-1.258-0.247-2.617-0.265-3.758-0.772-34.13-15.13-67.69 12.185-62.085 50.603 0.847 5.815 2.155 11.714 4.298 17.163 7.598 19.309 25.33 26.495 44.816 24.188 21.369-2.53 38.919-15.124 44.542-40.693 0.147-0.667 0.342-1.323 0.637-2.456 15.319 4.887 30.445 9.712 45.52 14.52-4.962 38.096-38.503 69.452-76.437 72.805-27.639 2.443-52.719-3.569-75.258-19.692-4.668-3.339-8.74-7.514-13.086-11.303 0.022-0.254-0.056-0.473-0.235-0.655-0.346-0.508-0.691-1.018-1.037-1.525-0.16 0.062-0.319 0.123-0.479 0.183 0.141 0.441 0.28 0.883 0.42 1.324 0.123 0.277 0.246 0.554 0.368 0.831 0.061 0.138 0.123 0.277 0.184 0.416 0 0 0 0 0 0 4.714 11.641 10.567 22.636 17.458 33.033 2.297 3.466 4.709 6.865 7.232 10.2 0.966 1.276 2.376 2.493 3.843 3.073 43.655 17.266 99.688 7.333 132.932-26.896 14.081-14.499 22.737-32.127 29.132-51.031 0.221-0.649 0.398-1.313 0.756-2.503 15.295 4.877 30.407 9.695 45.886 14.629-22.137 69.533-69 109.636-140.64 121.031 57.203 29.718 149.688 30.351 217.868-33.746 67.325-63.294 81.050-165.766 32.332-244.372zM76.291 291.060v0c4.713 11.641 10.566 22.636 17.457 33.033-6.891-10.398-12.744-21.393-17.457-33.033-0.001 0-0.001 0 0 0v0 0zM75.319 288.489c0.159-0.061 0.319-0.122 0.479-0.183 0.346 0.508 0.691 1.017 1.037 1.525-0.365-0.007-0.73-0.013-1.095-0.018-0.141-0.441-0.28-0.883-0.421-1.324zM62.088 205.41c-0.165-0.062-0.331-0.124-0.497-0.187 0.145-0.732 0.289-1.466 0.433-2.196 0.174 0.541 0.349 1.084 0.523 1.626-0.153 0.252-0.306 0.504-0.459 0.757zM76.291 291.060c-0.061-0.139-0.123-0.277-0.184-0.416 0.061 0.138 0.122 0.276 0.184 0.416 0-0.001 0-0.001 0 0zM186.744 221.933c63.691-20.702 126.259-41.039 189.866-61.713-7.8 12.061-15.003 23.196-22.912 35.426 8.539 0 16.075 0 23.353 0 0 16.496 0 32.098 0 48.070-8.553 0-16.661 0-25.293 0 8.452 13 16.574 25.492 25.356 39.003-63.769-20.363-126.524-40.4-190.37-60.786zM147.023 258.207c-19.426-0.064-35.28-16.039-35.237-35.506 0.042-19.453 16.015-35.333 35.463-35.257 19.529 0.077 35.224 15.911 35.166 35.481-0.058 19.55-15.903 35.345-35.392 35.282z" />
<glyph unicode="&#xe63a;" d="M313.4 176.218c7.81 0.147 20.726 0.091 28.531 0.028l5.28 105.428 0.097 42.3-39.265 0.008 0.021-42.696 5.336-105.068zM327.9 157.816c-5.662 0-14.178-0.072-19.844 0.030v-37.59c11.205 0.094 27.978 0.088 39.174 0l-0.049 37.59c-5.406-0.102-13.876-0.030-19.281-0.030zM214.68 323.951c-11.061-0.133-27.424-0.103-38.491-0.015l-0.066-33.489 38.533-0.006 0.024 33.51zM176.057 120.227h38.858l-0.108 125.25 19.708-0.296-0.135-89.602c0-4.549 0.275-9.068 0.85-13.571 1.633-12.954 7.157-19.637 19.18-22.014 13.237-2.619 28.35-1.28 41.641 0.145l0.060 26.774c-0.89-0.036-8.914-0.036-9.801 0-8.635 0.288-12.598 3.943-12.634 12.569l0.201 85.982 22.246-0.008 0.006 26.67-22.579 0.027 0.049 51.798-39.147 0.009-0.102-51.65-58.383-0.015 0.078-75.991 0.012-76.077zM417 480h-322c-52.467 0-95-42.533-95-95v-322c0-52.467 42.533-95 95-95h322c52.467 0 95 42.533 95 95v322c0 52.467-42.533 95-95 95zM413.011 69.917h-302.678v302.657h302.678v-302.657z" />
<glyph unicode="&#xe63b;" d="M512 224c0-141.385-114.615-256-256-256s-256 114.615-256 256c0 141.385 114.615 256 256 256s256-114.615 256-256zM191.565 114.311c11.084 0.195 22.52 1.648 33.104 4.827 27.144 8.149 44.452 35.993 42.271 64.95-1.643 21.825-11.348 37.702-31.991 46.198-0.155 0.063-0.21 0.369-0.441 0.802 11.444 5.677 20.292 14.046 23.165 26.717 1.77 7.806 2.529 16.16 1.907 24.125-1.443 18.457-10.534 32.478-27.227 41.141-10.935 5.675-22.785 7.967-34.896 8.069-36.196 0.305-72.396 0.184-108.594 0.229 0-72.425 0-144.851 0-217.277 34.235-0.001 68.477-0.383 102.702 0.219zM132.395 292.915c0.245 0.167 0.473 0.458 0.695 0.453 21.427-0.483 42.934-0.021 64.255-1.797 17.212-1.434 24.945-19.166 16.276-34.339-4.43-7.753-12.289-10.287-20.323-10.778-13.7-0.838-27.465-0.652-41.204-0.831-6.426-0.083-12.854-0.015-19.699-0.015 0 16.204 0 31.76 0 47.307zM132.523 210.175c22.023-0.539 43.646-0.268 65.129-1.859 15.641-1.159 23.591-11.283 23.423-26.036-0.195-17.024-8.703-27.547-24.441-29.393-7.208-0.846-14.539-0.797-21.816-0.86-14.008-0.123-28.018-0.036-42.295-0.036 0 19.223 0 38.189 0 58.184zM439.187 182.445c-0.869 11.952-0.727 23.42-2.706 34.509-4.5 25.207-17.492 44.724-41.658 55.227-15.669 6.81-32.289 8.389-49.076 5.982-30.383-4.354-51.774-20.438-61.503-50.063-7.031-21.41-6.863-43.304-1.732-65.145 4.104-17.471 13.87-30.918 29.121-40.513 22.815-14.354 47.399-16.84 73.149-11.072 20.558 4.604 35.878 16.635 46.348 34.717 2.577 4.45 3.859 9.65 5.942 15.036-15.435 0-29.588 0-43.722 0-10.76-16.671-27.052-22.414-46.188-16.307-16.252 5.186-25.92 19.467-25.242 37.629 38.667 0 77.348 0 117.267 0zM358.572 244.257c20.852-0.164 36.272-14.46 35.788-33.783-23.735 0-47.477 0-71.226 0 1.001 15.367 11.085 33.975 35.438 33.783zM402.888 318.404c-0.49 0.148-0.746 0.292-1.003 0.292-30.855 0.010-61.712 0.010-92.894 0.010 0-7.325 0-14.611 0-21.735 31.479 0 62.693 0 93.896 0 0.001 7.347 0.001 14.421 0.001 21.433z" />
<glyph unicode="&#xe63c;" d="M512 63c0-52.467-42.533-95-95-95h-322c-52.467 0-95 42.533-95 95v322c0 52.467 42.533 95 95 95h322c52.467 0 95-42.533 95-95v-322zM191.565 114.311c11.084 0.195 22.52 1.648 33.104 4.827 27.144 8.149 44.452 35.993 42.271 64.95-1.643 21.825-11.348 37.702-31.991 46.198-0.155 0.063-0.21 0.369-0.441 0.802 11.444 5.677 20.292 14.046 23.165 26.717 1.77 7.806 2.529 16.16 1.907 24.125-1.443 18.457-10.534 32.478-27.227 41.141-10.935 5.675-22.785 7.967-34.896 8.069-36.196 0.305-72.396 0.184-108.594 0.229 0-72.425 0-144.851 0-217.277 34.235-0.001 68.477-0.383 102.702 0.219zM132.395 292.915c0.245 0.167 0.473 0.458 0.695 0.453 21.427-0.483 42.934-0.021 64.255-1.797 17.212-1.434 24.945-19.166 16.276-34.339-4.43-7.753-12.289-10.287-20.323-10.778-13.7-0.838-27.465-0.652-41.204-0.831-6.426-0.083-12.854-0.015-19.699-0.015 0 16.204 0 31.76 0 47.307zM132.523 210.175c22.023-0.539 43.646-0.268 65.129-1.859 15.641-1.159 23.591-11.283 23.423-26.036-0.195-17.024-8.703-27.547-24.441-29.393-7.208-0.846-14.539-0.797-21.816-0.86-14.008-0.123-28.018-0.036-42.295-0.036 0 19.223 0 38.189 0 58.184zM439.187 182.445c-0.869 11.952-0.727 23.42-2.706 34.509-4.5 25.207-17.492 44.724-41.658 55.227-15.669 6.81-32.289 8.389-49.076 5.982-30.383-4.354-51.774-20.438-61.503-50.063-7.031-21.41-6.863-43.304-1.732-65.145 4.104-17.471 13.87-30.918 29.121-40.513 22.815-14.354 47.399-16.84 73.149-11.072 20.558 4.604 35.878 16.635 46.348 34.717 2.577 4.45 3.859 9.65 5.942 15.036-15.435 0-29.588 0-43.722 0-10.76-16.671-27.052-22.414-46.188-16.307-16.252 5.186-25.92 19.467-25.242 37.629 38.667 0 77.348 0 117.267 0zM358.572 244.257c20.852-0.164 36.272-14.46 35.788-33.783-23.735 0-47.477 0-71.226 0 1.001 15.367 11.085 33.975 35.438 33.783zM402.888 318.404c-0.49 0.148-0.746 0.292-1.003 0.292-30.855 0.010-61.712 0.010-92.894 0.010 0-7.325 0-14.611 0-21.735 31.479 0 62.693 0 93.896 0 0.001 7.347 0.001 14.421 0.001 21.433z" />
<glyph unicode="&#xe63d;" d="M512 224c0-141.385-114.615-256-256-256s-256 114.615-256 256c0 141.385 114.615 256 256 256s256-114.615 256-256zM227.342 131.959l-14.945 40.625c0 0-24.286-27.086-60.704-27.086-32.225 0-55.104 28.020-55.104 72.85 0 57.438 28.949 77.983 57.439 77.983 41.091 0 54.165-26.616 65.375-60.707l14.946-46.699c14.939-45.293 42.959-81.717 123.744-81.717 57.909 0 97.133 17.743 97.133 64.439 0 37.825-21.483 57.439-61.645 66.779l-29.886 6.537c-20.544 4.669-26.614 13.076-26.614 27.085 0 15.877 12.605 25.217 33.155 25.217 22.415 0 34.555-8.407 36.424-28.485l46.696 5.604c-3.735 42.027-32.686 59.305-80.318 59.305-42.025 0-83.12-15.877-83.12-66.777 0-31.754 15.411-51.837 54.166-61.175l31.757-7.47c23.815-5.604 31.751-15.409 31.751-28.953 0-17.275-16.809-24.281-48.563-24.281-47.165 0-66.773 24.749-77.983 58.84l-15.41 46.694c-19.609 60.708-50.9 83.122-113.008 83.122-68.644 0-105.069-43.428-105.069-117.209 0-70.981 36.426-109.271 101.804-109.271 52.759 0.002 77.979 24.75 77.979 24.75v0z" />
<glyph unicode="&#xe63e;" d="M512 63c0-52.467-42.533-95-95-95h-322c-52.467 0-95 42.533-95 95v322c0 52.467 42.533 95 95 95h322c52.467 0 95-42.533 95-95v-322zM227.342 131.959l-14.945 40.625c0 0-24.285-27.086-60.703-27.086-32.226 0-55.104 28.020-55.104 72.85 0 57.438 28.949 77.983 57.438 77.983 41.092 0 54.166-26.616 65.375-60.707l14.947-46.699c14.938-45.293 42.959-81.717 123.743-81.717 57.909 0 97.133 17.743 97.133 64.438 0 37.826-21.482 57.439-61.645 66.779l-29.886 6.537c-20.544 4.669-26.614 13.076-26.614 27.085 0 15.877 12.604 25.217 33.155 25.217 22.415 0 34.555-8.407 36.424-28.485l46.696 5.604c-3.735 42.027-32.687 59.305-80.318 59.305-42.025 0-83.12-15.877-83.12-66.777 0-31.754 15.411-51.837 54.166-61.176l31.757-7.469c23.815-5.604 31.751-15.41 31.751-28.953 0-17.275-16.809-24.281-48.562-24.281-47.165 0-66.773 24.749-77.983 58.84l-15.409 46.694c-19.609 60.708-50.9 83.122-113.009 83.122-68.644 0-105.069-43.428-105.069-117.208 0-70.981 36.426-109.271 101.805-109.271 52.757 0.002 77.977 24.75 77.977 24.75v0z" />
<glyph unicode="&#xe63f;" d="M512 224c0-141.385-114.615-256-256-256s-256 114.615-256 256c0 141.385 114.615 256 256 256s256-114.615 256-256zM65.948 216.493c0.006-36.163-0.073-72.327 0.087-108.489 0.033-7.478 0.416-15.034 1.559-22.411 4.345-28.026 19.189-47.92 46.162-58.084 13.152-4.955 26.826-7.212 40.796-7.383 18.939-0.232 37.884-0.063 56.827-0.045 1.34 0 2.678 0.175 4.018 0.269 0 18.777 0 37.183 0 55.557-9.95 0.496-19.658 0.433-29.223 1.574-19.041 2.272-33.955 10.818-40.002 30.232-2.018 6.475-3.308 13.438-3.406 20.201-0.436 30.203-0.326 60.413-0.393 90.622-0.002 1.193 0.188 2.389 0.337 4.147 24.401 0 48.547 0 72.59 0 0 18.963 0 37.332 0 56.112-24.404 0-48.448 0-72.93 0 0 1.944 0 3.479 0 5.014 0.002 17.845-0.027 35.691 0.020 53.536 0.022 8.252 0.192 16.505 0.294 24.758-0.626 0-1.252 0-1.879 0-0.979-0.286-1.958-0.821-2.938-0.821-23.823-0.006-47.644 0.044-71.466 0.083-0.148-1.689-0.423-3.38-0.425-5.069-0.031-24.052-0.025-48.103-0.028-72.154 0-1.667 0-3.336 0-5.669-12.368 0-24.194 0-36.020 0 0-18.792 0-37.585 0-56.379 11.953 0 23.907 0 36.023 0-0.003-2.168-0.003-3.885-0.003-5.601zM342.084 278.505c-14.268-0.691-28.695-2.573-42.57-5.924-23.564-5.69-41.969-19.013-52.382-41.665-7.235-15.739-9.804-32.501-9.832-49.7-0.074-46.509-0.098-93.018-0.139-139.525-0.006-7.126-0.001-14.251-0.001-21.351 25.908 0 51.039 0 76.472 0 0 1.955-0.002 3.652 0 5.349 0 41.813-0.111 83.626 0.094 125.438 0.043 8.881 0.637 17.851 2.014 26.616 4.043 25.765 18.494 40.319 44.258 43.422 12.986 1.564 26.242 0.883 39.377 1.204 1.639 0.041 3.281 0.006 5.068 0.006 0 19.058 0 37.343 0 55.981-0.863 0.188-1.316 0.37-1.77 0.372-20.2 0.017-40.435 0.751-60.589-0.223z" />
<glyph unicode="&#xe640;" d="M512 63c0-52.467-42.533-95-95-95h-322c-52.467 0-95 42.533-95 95v322c0 52.467 42.533 95 95 95h322c52.467 0 95-42.533 95-95v-322zM63.809 331.188c25.35-0.042 50.697-0.096 76.047-0.088 1.043 0 2.084 0.569 3.127 0.874-26.33 0-52.659 0-78.989 0-0.336-0.2-0.396-0.46-0.185-0.786zM63.33 177.030c0.006-38.48-0.078-76.962 0.092-115.441 0.035-7.956 0.443-15.997 1.659-23.848 4.624-29.821 20.419-50.991 49.121-61.807 13.995-5.272 28.545-7.674 43.409-7.856 20.154-0.247 40.312-0.066 60.47-0.048 1.425 0.001 2.851 0.188 4.274 0.286 0 19.98 0 39.565 0 59.117-10.588 0.528-20.918 0.46-31.095 1.675-20.261 2.419-36.131 11.512-42.567 32.17-2.146 6.891-3.52 14.301-3.623 21.496-0.465 32.139-0.346 64.285-0.418 96.43-0.004 1.271 0.201 2.543 0.358 4.414 25.964 0 51.657 0 77.241 0 0 20.178 0 39.725 0 59.708-25.967 0-51.553 0-77.604 0 0 2.068 0 3.702 0 5.335 0.002 18.989-0.028 37.978 0.021 56.967 0.022 8.782 0.205 17.563 0.313 26.345-0.666 0-1.332 0-2 0-1.041-0.304-2.084-0.874-3.127-0.874-25.35-0.007-50.697 0.046-76.047 0.088-0.158-1.798-0.449-3.596-0.453-5.394-0.033-25.593-0.025-51.186-0.029-76.778 0-1.774 0-3.55 0-6.032-13.161 0-25.745 0-38.329 0 0-19.997 0-39.994 0-59.992 12.719 0 25.438 0 38.332 0 0.002-2.308 0.002-4.135 0.002-5.961zM357.163 243.016c-15.185-0.735-30.536-2.737-45.299-6.303-25.075-6.056-44.66-20.231-55.739-44.334-7.699-16.748-10.434-34.584-10.462-52.887-0.078-49.488-0.104-98.979-0.147-148.467-0.007-7.583 0-15.165 0-22.72 27.566 0 54.309 0 81.371 0 0 2.081-0.001 3.887 0 5.69 0.001 44.493-0.117 88.985 0.102 133.478 0.046 9.45 0.678 18.995 2.143 28.321 4.303 27.416 19.68 42.903 47.095 46.205 13.817 1.664 27.924 0.939 41.899 1.281 1.745 0.043 3.493 0.006 5.394 0.006 0 20.279 0 39.736 0 59.569-0.918 0.199-1.398 0.395-1.882 0.396-21.498 0.021-43.031 0.803-64.475-0.235z" />
<glyph unicode="&#xe641;" d="M512 224c0-141.385-114.615-256-256-256s-256 114.615-256 256c0 141.385 114.615 256 256 256s256-114.615 256-256zM332.814 380.275c-0.159 0-0.319-0.099-0.712-0.228-38.531-67.483-77.149-135.119-115.721-202.673 24.975-43.772 49.818-87.314 74.575-130.706 26.073 0 51.85 0 77.98 0-24.923 43.686-49.714 87.138-74.537 130.648 0.385 0.717 0.736 1.409 1.12 2.082 28.738 50.333 57.487 100.66 86.216 150.999 9.286 16.272 18.521 32.575 27.78 48.863-0.018 0.324-0.035 0.648-0.054 0.972-25.548 0.017-51.097 0.034-76.647 0.043zM182.961 319.314c-3.97 0-7.877 0.004-11.784-0.001-20.334-0.026-40.668-0.056-61.003-0.083-0.008-0.315-0.016-0.63-0.024-0.946 0.437-0.843 0.846-1.702 1.314-2.526 11.307-19.92 22.623-39.835 33.933-59.753 2.516-4.43 5.018-8.866 7.486-13.226-19.295-31.767-38.467-63.33-57.829-95.207 24.733 0 49.016 0 73.51 0 19.254 31.694 38.569 63.491 57.847 95.224-14.543 25.609-28.978 51.031-43.45 76.518z" />
<glyph unicode="&#xe642;" d="M512 63c0-52.467-42.533-95-95-95h-322c-52.467 0-95 42.533-95 95v322c0 52.467 42.533 95 95 95h322c52.467 0 95-42.533 95-95v-322zM336.293 379.796c-0.159 0-0.319-0.099-0.713-0.228-38.531-67.483-77.148-135.119-115.721-202.673 24.975-43.771 49.818-87.312 74.575-130.705 26.073 0 51.85 0 77.979 0-24.923 43.686-49.714 87.139-74.537 130.648 0.386 0.717 0.736 1.408 1.121 2.082 28.737 50.332 57.486 100.659 86.216 150.998 9.286 16.272 18.521 32.575 27.779 48.863-0.018 0.324-0.034 0.648-0.054 0.972-25.546 0.017-51.095 0.034-76.645 0.043zM186.439 318.835c-3.97 0-7.877 0.004-11.784-0.001-20.334-0.026-40.668-0.056-61.003-0.083-0.008-0.315-0.016-0.63-0.023-0.946 0.437-0.843 0.846-1.702 1.313-2.526 11.308-19.92 22.623-39.835 33.933-59.753 2.517-4.43 5.019-8.866 7.486-13.226-19.295-31.767-38.467-63.329-57.828-95.206 24.732 0 49.016 0 73.51 0 19.254 31.693 38.568 63.49 57.847 95.223-14.543 25.609-28.978 51.031-43.451 76.518z" />
<glyph unicode="&#xe643;" d="M255.945 480c-141.356 0-255.945-114.626-255.945-256 0-141.356 114.59-255.981 255.945-255.981 141.429 0 256.036 114.644 256.036 255.982 0 141.374-114.608 256-256.036 256zM366.012 154.686l-40.772-40.717c0 0-64.499 69.204-69.314 69.204-4.742 0-69.259-69.204-69.259-69.204l-40.79 40.717c0 0 69.278 63.565 69.278 69.223 0 5.749-69.278 69.332-69.278 69.332l40.79 40.808c0 0 65.048-69.24 69.259-69.24 4.248 0 69.314 69.24 69.314 69.24l40.772-40.808c0 0-69.296-64.499-69.296-69.332 0-4.596 69.296-69.222 69.296-69.222z" />
<glyph unicode="&#xe644;" d="M512 224c0-141.385-114.615-256-256-256s-256 114.615-256 256c0 141.385 114.615 256 256 256s256-114.615 256-256zM307.853 95.699c-58.27 0-116.046 0-174.299 0 0 38.731 0 77.285 0 115.914-7.879 0-15.279 0-22.721 0 0-46.271 0-92.278 0-138.392 73.417 0 146.453 0 219.82 0 0 46.209 0 92.25 0 138.343-7.571 0-14.943 0-22.8 0 0-38.855 0-77.382 0-115.865zM324.735 405.369c7.641-43.964 15.203-87.489 22.775-131.060 9.669 1.681 18.645 3.242 28.041 4.876-7.638 43.877-15.216 87.418-22.824 131.129-9.506-1.679-18.576-3.281-27.992-4.945zM288.83 183.138c-44.427 4.087-88.399 8.132-132.541 12.192-0.879-9.758-1.692-18.802-2.548-28.31 44.317-4.082 88.29-8.133 132.435-12.197 0.897 9.566 1.746 18.625 2.654 28.315zM297.557 220.207c-43.042 11.569-85.627 23.017-128.512 34.545-2.49-9.299-4.865-18.17-7.354-27.469 43.012-11.561 85.585-23.001 128.462-34.525 2.496 9.257 4.861 18.020 7.404 27.449zM243.967 366.497c25.106-36.805 50.005-73.303 74.976-109.908 8.043 5.492 15.671 10.7 23.479 16.033-25.080 36.769-49.978 73.271-74.977 109.921-8.034-5.49-15.65-10.695-23.478-16.046zM314.335 252.703c-38.372 22.63-76.374 45.043-114.626 67.602-4.865-8.256-9.594-16.282-14.436-24.498 38.408-22.653 76.389-45.053 114.595-67.586 4.817 8.151 9.509 16.092 14.467 24.482zM285.339 146.368c-44.333 0-88.408 0-132.584 0 0-9.464 0-18.668 0-27.898 44.332 0 88.408 0 132.584 0 0 9.477 0 18.671 0 27.898z" />
<glyph unicode="&#xe645;" d="M512 63c0-52.467-42.533-95-95-95h-322c-52.467 0-95 42.533-95 95v322c0 52.467 42.533 95 95 95h322c52.467 0 95-42.533 95-95v-322zM307.853 95.699c-58.27 0-116.046 0-174.299 0 0 38.731 0 77.285 0 115.914-7.879 0-15.279 0-22.721 0 0-46.271 0-92.278 0-138.392 73.417 0 146.453 0 219.82 0 0 46.209 0 92.25 0 138.343-7.571 0-14.943 0-22.8 0 0-38.855 0-77.382 0-115.865zM324.735 405.369c7.641-43.964 15.203-87.489 22.775-131.060 9.669 1.681 18.645 3.242 28.041 4.876-7.638 43.877-15.216 87.418-22.824 131.129-9.506-1.679-18.576-3.281-27.992-4.945zM288.83 183.138c-44.427 4.087-88.399 8.132-132.541 12.192-0.879-9.758-1.692-18.802-2.548-28.31 44.317-4.082 88.29-8.133 132.435-12.197 0.897 9.566 1.746 18.625 2.654 28.315zM297.557 220.207c-43.042 11.569-85.627 23.017-128.512 34.545-2.49-9.299-4.865-18.17-7.354-27.469 43.012-11.561 85.585-23.001 128.462-34.525 2.496 9.257 4.861 18.020 7.404 27.449zM243.967 366.497c25.106-36.805 50.005-73.303 74.976-109.908 8.043 5.492 15.671 10.7 23.479 16.033-25.080 36.769-49.978 73.271-74.977 109.921-8.034-5.49-15.65-10.695-23.478-16.046zM314.335 252.703c-38.372 22.63-76.374 45.043-114.626 67.602-4.865-8.256-9.594-16.282-14.436-24.498 38.408-22.653 76.389-45.053 114.595-67.586 4.817 8.151 9.509 16.092 14.467 24.482zM285.339 146.368c-44.333 0-88.408 0-132.584 0 0-9.464 0-18.668 0-27.898 44.332 0 88.408 0 132.584 0 0 9.477 0 18.671 0 27.898z" />
<glyph unicode="&#xe646;" d="M512 224c0-141.385-114.615-256-256-256s-256 114.615-256 256c0 141.385 114.615 256 256 256s256-114.615 256-256zM151.151 297.78c-37.442-17.249-55.515-40.925-61.457-80.741 0.015-6.275 0.030-12.552 0.044-18.827 0.259-1.533 0.524-3.065 0.775-4.599 8.732-53.438 55.893-88.066 109.352-79.422 11.472 1.854 22.428 6.9 34.151 10.646 1.167-11.179 2.446-22.948 3.601-34.73 0.557-5.67 1.702-11.094 7.873-13.077 6.434-2.066 10.917 1.146 14.348 6.397 1.271 1.948 2.787 3.737 4.184 5.604 11.466 15.32 22.93 30.643 34.143 45.629 34.326-0.625 50.972 9.026 66.448 38.107 39.746 5.912 70.229 22.918 78.994 65.94-0.016 5.747-0.030 11.493-0.045 17.24-4.799 25.526-19.401 43.98-42.637 54.468-12.569 5.673-23.401 12.584-33.742 21.731-23.317 20.625-52.031 28.734-82.515 31.41-7.845 0.005-15.689 0.011-23.534 0.016-46.945-4.556-86.95-20.709-109.983-65.792z" />
<glyph unicode="&#xe647;" d="M512 63c0-52.467-42.533-95-95-95h-322c-52.467 0-95 42.533-95 95v322c0 52.467 42.533 95 95 95h322c52.467 0 95-42.533 95-95v-322zM151.151 297.78c-37.442-17.249-55.515-40.925-61.457-80.741 0.015-6.275 0.030-12.552 0.044-18.827 0.259-1.533 0.524-3.065 0.775-4.599 8.732-53.438 55.893-88.066 109.352-79.422 11.472 1.854 22.428 6.9 34.151 10.646 1.167-11.179 2.446-22.948 3.601-34.73 0.557-5.67 1.702-11.094 7.873-13.077 6.434-2.066 10.917 1.146 14.348 6.397 1.271 1.948 2.787 3.737 4.184 5.604 11.466 15.32 22.93 30.643 34.143 45.629 34.326-0.625 50.972 9.026 66.448 38.107 39.746 5.912 70.229 22.918 78.994 65.94-0.016 5.747-0.030 11.493-0.045 17.24-4.799 25.526-19.401 43.98-42.637 54.468-12.569 5.673-23.401 12.584-33.742 21.731-23.317 20.625-52.031 28.734-82.515 31.41-7.845 0.005-15.689 0.011-23.534 0.016-46.945-4.556-86.95-20.709-109.983-65.792z" />
<glyph unicode="&#xe648;" d="M512 63c0-52.467-42.533-95-95-95h-322c-52.467 0-95 42.533-95 95v322c0 52.467 42.533 95 95 95h322c52.467 0 95-42.533 95-95v-322zM192.428 224.886c15.891 0 28.765-12.875 28.765-28.766s-12.874-28.791-28.765-28.791c-15.889 0-28.791 12.901-28.791 28.791 0 15.891 12.903 28.766 28.791 28.766zM469.557 219.4c0 35.56-28 64.483-62.396 64.483-12.082 0-23.277-3.649-32.836-9.771-29.584 17.186-66.941 27.867-107.709 29.334l23.504 67.457 48.672-11.646c-0.158-1.612-0.475-3.158-0.475-4.798 0-26.835 21.838-48.672 48.672-48.672 26.809 0 48.674 21.824 48.674 48.672 0 26.835-21.852 48.646-48.674 48.646-17.502 0-32.703-9.333-41.27-23.213l-69.614 16.658-32.492-93.234c-40.583-2.089-77.518-13.404-106.573-31.052 0.581 0.396 1.083 0.859 1.665 1.269-9.769 6.53-21.361 10.363-33.841 10.363-34.424 0-62.421-28.91-62.421-64.483 0-23.794 12.664-44.415 31.303-55.547 7.641-66.492 86.89-118.972 183.402-118.972 97.137 0 176.795 53.18 183.537 120.281 17.317 11.421 28.872 31.422 28.872 54.225zM386.988 381.44c14.871 0 26.994-12.108 26.994-27.007 0-14.872-12.137-26.994-26.994-26.994-14.924 0-27.020 12.122-27.020 26.994 0.001 14.899 12.108 27.007 27.020 27.007zM104.865 262.23c4.905 0 9.544-1.071 13.893-2.75-23.556-18.891-39.379-42.579-44.139-68.714-6.517 7.601-10.535 17.622-10.535 28.634-0.001 23.609 18.308 42.83 40.781 42.83zM257.148 66.533c-89.625 0-162.528 48.342-162.528 107.789s72.902 107.789 162.528 107.789c89.602 0 162.492-48.342 162.492-107.789s-72.89-107.789-162.492-107.789zM439.139 193.107c-5.328 25.459-21.111 48.474-44.299 66.889 3.914 1.321 7.984 2.234 12.32 2.234 22.447 0 40.742-19.208 40.742-42.83-0.025-9.927-3.357-19.023-8.763-26.293zM316.174 224.886c15.902 0 28.779-12.875 28.779-28.766s-12.877-28.791-28.779-28.791-28.779 12.901-28.779 28.791c0 15.891 12.876 28.766 28.779 28.766zM311.533 132.14c-60.966-40.239-110.142-2.313-112.336-0.595-4.68 3.755-11.474 3.001-15.201-1.652-3.742-4.666-3.042-11.475 1.612-15.229 0.409-0.344 28.514-22.421 69.321-22.421 20.305 0 43.756 5.474 68.542 21.812 4.996 3.306 6.373 10.021 3.080 15.004-3.305 4.984-10.022 6.386-15.018 3.081z" />
<glyph unicode="&#xe649;" d="M512 63c0-52.467-42.533-95-95-95h-322c-52.467 0-95 42.533-95 95v322c0 52.467 42.533 95 95 95h322c52.467 0 95-42.533 95-95v-322zM379.873 241.681c40.591 12.007 64.394 55.019 47.302 55.883-43.874 2.232-81.408 23.489-106.685 39.375-2.672 1.765-5.404 3.441-8.203 5.005v-98.867c0-32.683-19.767-58.743-42.203-69.577-32.548-15.71-68.831-5.842-81.018 22.043-12.189 27.888 4.318 63.238 36.873 78.949 18.011 8.689 37.136 9.532 52.712 3.846v76.7c-9.842 2.354-20.082 3.664-30.639 3.664-73.45 0-132.995-60.305-132.995-134.701s59.545-134.701 132.995-134.701c73.455 0 132.994 60.305 132.994 134.701 0.001 5.989-0.391 11.898-1.133 17.68z" />
</font>
</defs>
</svg>
